.
Авторизация | Регистрация
Хочешь лучшие торренты? Добавь свой email!
Добавить

Торрент скачать бесплатно

» » Страшные сказки / Грошовые ужасы / Бульварные ужасы / Penny Dreadful (2016) WEB-DLRip (сезон 3, серии 1 из 10) NewStudio (обновляемая) торрент скачать бесплатно



    Страшные сказки / Грошовые ужасы / Бульварные ужасы / Penny Dreadful (2016) WEB-DLRip (сезон 3, серии 1 из 10) NewStudio (обновляемая) торрент скачать бесплатно

    Опубликовал: Админ | Дата: 29-04-2016, 04:01 | Просмотров: 116

    Производство: США, Ирландия, Великобритания/Desert Wolf Productions, Neal Street Productions
    Жанр: ужасы, фэнтези, драма
    Режиссер: Джеймс Хоуз, Брайан Кирк, Пако Кабесас

    Актеры
    Ева Грин, Тимоти Далтон, Гарри Тредэвэй, Джош Хартнетт, Рив Карни, Дэнни Сапани, Билли Пайпер, Рори Киннер, Оливия Ллевелин, Алан Армстронг и др.

    Описание

    Сериал возвращает нас ко всеми любимым героям, монстрам и злодеям. В викторианском Лондоне, где происходит действие сериала, никогда не было спокойно и безопасно. Особенно теперь, когда литературные персонажи ожили и наводят ужас на город. Неминуема встреча с вечно молодым Дорианом Греем, героем одноименного романа Оскара Уайльда, доктором Франкенштейном и его зомби-монстром, хладнокровным графом Дракулой, охотником на вампиров и оборотней Ван Хельсингом и множеством других уникальных персонажей.

    Продолжительность: ~01: 00: 00 серия
    Качество видео: WEB-DLRip
    Перевод: Многоголосый закадровый, профессиональный -NewStudio
    Автор перевода: Григорий Сенин
    Видео: XviD, 720x400 (16: 9), ~1321 kb/s
    Аудио Rus: MPEG Layer 3, 48, 0 kHz, 2 ch, 128 kb/s — многоголосый закадровый
    Аудио Eng: MPEG Layer 3, 48, 0 kHz, 2 ch, 128 kb/s — оригинал
    Общее
    Полное имя : D: Страшные сказки (сезон любимого сериала 3) Penny Dreadful (2016) WEB-DLRip - NewStudioPenny.Dreadful.S03E01.WEBDLRip.Rus.Eng.DV.NewStudio.avi
    Формат : AVI
    Формат/Информация : Audio Video Interleave
    Размер файла : 682 Мбайт
    Продолжительность : 59 м.
    Общий поток : 1591 Кбит/сек
    Название фильма : Penny.Dreadful.S03E01.WEBDLRip.Rus.Eng.DV.NewStudio/NNM-Club
    Программа кодирования : VirtualDubModRus 1.5.10.2 (build 2542/release)
    Библиотека кодирования : VirtualDubMod build 2542/release
    Видео
    Идентификатор : 0
    Формат : MPEG-4 Visual
    Профиль формата : Advanced Simple@L5
    Параметр BVOP формата : 2
    Параметр QPel формата : Нет
    Параметр GMC формата : Без точки перехода
    Параметр матрицы формата : Default (MPEG)
    Идентификатор кодека : XVID
    Идентификатор кодека/Подсказка : XviD
    Продолжительность : 59 м.
    Битрейт : 1321 Кбит/сек
    Ширина : 720 пикселей
    Высота : 400 пикселей
    Соотношение сторон : 16: 9
    Частота кадров : 23, 976 (23976/1000) кадра/сек
    Цветовое пространство : YUV
    Субдискретизация насыщенности : 4: 2: 0
    Битовая глубина : 8 бит
    Тип развёртки : Прогрессивная
    Метод сжатия : С потерями
    Бит/(Пиксели*Кадры) : 0.191
    Размер потока : 566 Мбайт (83%)
    Библиотека кодирования : XviD 73
    Аудио #1
    Идентификатор : 1
    Формат : MPEG Audio
    Версия формата : Version 1
    Профиль формата : Layer 3
    Режим : Joint stereo
    Расширение режима : MS Stereo
    Идентификатор кодека : 55
    Идентификатор кодека/Подсказка : MP3
    Продолжительность : 59 м.
    Вид битрейта : Постоянный
    Битрейт : 128 Кбит/сек
    Каналы : 2 канала
    Частота : 48, 0 КГц
    Метод сжатия : С потерями
    Размер потока : 54, 8 Мбайт (8%)
    Выравнивание : Соединение по промежуткам
    Продолжительность промежутка : 42 мс. (1, 00 видеокадр)
    Время предзагрузки промежутка : 504 мс.
    Аудио #2
    Идентификатор : 2
    Формат : MPEG Audio
    Версия формата : Version 1
    Профиль формата : Layer 3
    Режим : Joint stereo
    Расширение режима : MS Stereo
    Идентификатор кодека : 55
    Идентификатор кодека/Подсказка : MP3
    Продолжительность : 59 м.
    Вид битрейта : Постоянный
    Битрейт : 128 Кбит/сек
    Каналы : 2 канала
    Частота : 48, 0 КГц
    Метод сжатия : С потерями
    Размер потока : 54, 8 Мбайт (8%)
    Выравнивание : Соединение по промежуткам
    Продолжительность промежутка : 42 мс. Самое интересное в это истории, что об этом Обама ничего не знал. (1, 00 видеокадр)
    Время предзагрузки промежутка : 504 мс.
    Библиотека кодирования : LAMET!¦®YЅЧm.O”zdђт


    Скриншоты для ознакомления




    Онлайн видео Страшные сказки


    Прямая ссылка скачивания через uTorrent


    Страшные сказки/Грошовые ужасы/Бульварные ужасы/Penny Dreadful (2016) WEB-DLRip (сезон 3, серии 1 из 10) NewStudio (обновляемая)
    загрузка...
    Рейтинг →
     (голосов: 1, оценка 5/5, голосовать можно 1 раз )

    Другие торренты по теме:

  • Страшные сказки / Грошовые ужасы / Бульварные ужасы / Penny Dreadful (2015) HDTVRip (сезон 2, серии 1 из 10) NewStudio (обновляемая) скачать через торрент бесплатно
  • Страшные сказки / Грошовые ужасы / Бульварные ужасы / Penny Dreadful (2015) HDTV [H.264 / 720p-LQ] (Сезон 2, серия 1 из 10) (NewStudio) (обновляемая) скачать через торрент бесплатно
  • Страшные сказки / Грошовые ужасы / Бульварные ужасы / Penny Dreadful (2015) HDTVRip (сезон 2, серии 1 из 10) BaibaKo (обновляемая) скачать через торрент бесплатно
  • Страшные сказки / Грошовые ужасы / Бульварные ужасы / Penny Dreadful (2015) HDTV [H.264 / 720p-LQ] (Сезон 2, серия 1 из 10) (BaibaKo) (обновляемая) скачать через торрент бесплатно
  • Страшные сказки / Грошовые ужасы / Ужасы по дешёвке / Penny Dreadful (2015) HDTVRip (сезон 2, серии 1 из 10) (ViruseProject) (обновляемая) скачать через торрент бесплатно
  • Страшные сказки / Грошовые ужасы / Ужасы по дешёвке / Penny Dreadful (2015) HDTVRip [H.264 / 720p] (сезон 2, серии 1 из 10) (ViruseProject) (обновляемая) скачать через торрент бесплатно
  • Страшные сказки / Грошовые ужасы / Бульварные ужасы / Penny Dreadful (2015) HDTVRip (сезон 2, серии 1-2 из 10) LostFilm (обновляемая) скачать через торрент бесплатно
  • Страшные сказки / Грошовые ужасы / Бульварные ужасы / Penny Dreadful (2015) HDTV [1080i] (Сезон 2, серия 1 из 10) (AlexFilm) (обновляемая) скачать через торрент бесплатно


    • Комментарии (0):

      Информация

      Информация

        Посетители, находящиеся в группе Гости, не могут оставлять комментарии в данной новости.

        ↓ Меню




        ↓ Опрос

        Вы добавили сайт в закладки?
        Да
        Нет


        Top 10 за месяц (Фильмы)