.
Авторизация | Регистрация
Хочешь лучшие торренты? Добавь свой email!
Добавить

Торрент скачать бесплатно

» » Отмеченный смертью / Marked for Death (1990) BDRip [H.265 / 1080p] [Main10] торрент скачать бесплатно




    Отмеченный смертью / Marked for Death (1990) BDRip [H.265 / 1080p] [Main10] торрент скачать бесплатно

    Опубликовал: Админ | Дата: 29-04-2016, 04:00 | Просмотров: 46

    Производство: США
    Жанр: Боевик, Драма, Криминал, Триллер
    Режиссер: Дуайт Х. Литтл

    Актеры
    Стивен Сигал, Бейзил Уоллес, Кит Дэвид, Том Райт, Джоанна Пакула, Элизабет Грэйсен, Бетти Форд, Даниэль Харрис, Эл Израэл, Арлен Дин Снайдер, Виктор Ромеро Эванс, Майкл Ральф

    Описание

    После смерти напарника Джон Хэтчер, специальный агент отдела по борьбе с наркотиками, решает подать в отставку. Самое интересное в это истории, что об этом Халк ничего не знал. Переехав к своей сестре в Чикаго, Хэтчер намеревается вести тихое и размеренное существование. Но этому не суждено было сбыться.
    На пути у бывшего полицейского встает ямайская наркомафия во главе со своим жутким главарем по прозвищу Зомби. Хэтчер оказывается втянутым в кровавые разборки.

    Возраст: 16+ (зрителям, достигшим 16 лет)
    Рейтинг MPAA: R (лицам до 17 лет обязательно присутствие взрослого)
    Продолжительность: 01: 33: 19
    Качество видео: BDRip
    Перевод: Дублированный (Хлопушка)
    Язык субтитров: Немецкий, английский, русский
    Вид субтитров: Вшитые (отключаемые)
    Видео: HEVC/H.265, 1920x812, ~10, 2 Mbps
    Аудио: AC3, 2 ch, 224 Kbps, CBR
    Код:

    Общее
    Уникальный идентификатор : 242896599581226924999857417024241555068 (0xB6BC2EF6BB66C5F29655F8BDCD06567C)
    Полное имя : G:MoviesФильмыИностранныеОтмеченный смертью (Marked For Death).mkv
    Формат : Matroska
    Версия формата : Version 4/Version 2
    Размер файла : 6, 82 Гбайт
    Продолжительность : 1 ч. 33 м.
    Общий поток : 10, 5 Мбит/сек
    Название фильма : Отмеченный смертью/Marked For Death
    Дата кодирования : UTC 2015-09-24 08:11:16
    Программа кодирования : mkvmerge v7.9.0 (\'Birds\') 64bit
    Библиотека кодирования : libebml v1.3.1 + libmatroska v1.4.2
    Видео
    Идентификатор : 1
    Формат : HEVC
    Формат/Информация : High Efficiency Video Coding
    Профиль формата : Main 10@L4@Main
    Идентификатор кодека : V_MPEGH/ISO/HEVC
    Продолжительность : 1 ч. 33 м.
    Битрейт : 10, 2 Мбит/сек
    Ширина : 1920 пикселей
    Высота : 812 пикселей
    Соотношение сторон : 2, 35:1
    Режим частоты кадров : Постоянный
    Частота кадров : 23, 976 (24000/1001) кадра/сек
    Цветовое пространство : YUV
    Субдискретизация насыщенности : 4:2:0
    Битовая глубина : 10 бит
    Бит/(Пиксели*Кадры) : 0.274
    Размер потока : 6, 66 Гбайт (98%)
    Библиотека кодирования : x265 1.7+382-7c83f7755422:[Windows][GCC 5.1.0][64 bit] 10bit
    Настройки программы : wpp/ctu=64/min-cu-size=8/max-tu-size=32/tu-intra-depth=1/tu-inter-depth=1/me=1/subme=2/merange=57/no-rect/no-amp/max-merge=2/temporal-mvp/no-early-skip/rdpenalty=0/no-tskip/no-tskip-fast/strong-intra-smoothing/no-lossless/no-cu-lossless/no-constrained-intra/no-fast-intra/open-gop/no-temporal-layers/interlace=0/keyint=240/min-keyint=24/scenecut=40/rc-lookahead=20/lookahead-slices=0/bframes=4/bframe-bias=0/b-adapt=2/ref=3/limit-refs=0/weightp/no-weightb/aq-mode=1/aq-strength=0.30/cbqpoffs=0/crqpoffs=0/rd=3/psy-rd=0.50/rdoq-level=0/psy-rdoq=0.00/signhide/deblock=-2:-2/sao/no-sao-non-deblock/b-pyramid/cutree/rc=2/pass/bitrate=10229/qcomp=0.80/qpmin=0/qpmax=51/qpstep=4/cplxblur=20.0/qblur=0.5/ipratio=1.10/pbratio=1.10
    Default : Да
    Forced : Нет
    Аудио
    Идентификатор : 2
    Формат : AC-3
    Формат/Информация : Audio Coding 3
    Расширение режима : CM (complete main)
    Параметр Endianness формата : Big
    Идентификатор кодека : A_AC3
    Продолжительность : 1 ч. 33 м.
    Вид битрейта : Постоянный
    Битрейт : 224 Кбит/сек
    Каналы : 2 канала
    Расположение каналов : Front: L R
    Частота : 48, 0 КГц
    Частота кадров : 31, 250 кадров/сек (1536 spf)
    Метод сжатия : С потерями
    Размер потока : 150 Мбайт (2%)
    Заголовок : DUB (Хлопушка)
    Язык : Russian
    Default : Да
    Forced : Нет
    Текст #1
    Идентификатор : 3
    Формат : VobSub
    Режим смешивания : zlib
    Идентификатор кодека : S_VOBSUB
    Идентификатор кодека/Информация : Picture based subtitle format used on DVDs
    Продолжительность : 1 ч. 31 м.
    Битрейт : 3030 бит/сек
    Count of elements : 566
    Размер потока : 1, 99 Мбайт (0%)
    Язык : German
    Default : Нет
    Forced : Нет
    Текст #2
    Идентификатор : 4
    Формат : VobSub
    Режим смешивания : zlib
    Идентификатор кодека : S_VOBSUB
    Идентификатор кодека/Информация : Picture based subtitle format used on DVDs
    Продолжительность : 1 ч. 31 м.
    Битрейт : 3477 бит/сек
    Count of elements : 660
    Размер потока : 2, 28 Мбайт (0%)
    Язык : English
    Default : Нет
    Forced : Нет
    Текст #3
    Идентификатор : 5
    Формат : UTF-8
    Режим смешивания : zlib
    Идентификатор кодека : S_TEXT/UTF8
    Идентификатор кодека/Информация : UTF-8 Plain Text
    Продолжительность : 1 ч. 27 м.
    Битрейт : 45 бит/сек
    Count of elements : 660
    Размер потока : 29, 2 Кбайт (0%)
    Язык : English
    Default : Нет
    Forced : Нет
    Текст #4
    Идентификатор : 6
    Формат : UTF-8
    Режим смешивания : zlib
    Идентификатор кодека : S_TEXT/UTF8
    Идентификатор кодека/Информация : UTF-8 Plain Text
    Продолжительность : 1 ч. 27 м.
    Битрейт : 60 бит/сек
    Count of elements : 602
    Размер потока : 38, 6 Кбайт (0%)
    Язык : Russian
    Default : Да
    Forced : Нет
    Меню
    00:00:00.000 : en:00:00:00.000
    00:07:52.222 : en:00:07:52.222
    00:10:12.028 : en:00:10:12.028
    00:14:02.633 : en:00:14:02.633
    00:16:43.252 : en:00:16:43.252
    00:20:19.552 : en:00:20:19.552
    00:23:05.259 : en:00:23:05.259
    00:30:57.064 : en:00:30:57.064
    00:36:13.505 : en:00:36:13.505
    00:39:26.364 : en:00:39:26.364
    00:43:00.620 : en:00:43:00.620
    00:46:50.933 : en:00:46:50.933
    00:50:28.484 : en:00:50:28.484
    00:59:01.830 : en:00:59:01.830
    01:01:54.878 : en:01:01:54.878
    01:06:10.383 : en:01:06:10.383
    01:11:38.544 : en:01:11:38.544
    01:18:01.093 : en:01:18:01.093
    01:20:56.685 : en:01:20:56.685
    01:26:02.491 : en:01:26:02.491
    01:29:10.762 : en:01:29:10.762
    XMP
    Xmp.video.FileName : G:MoviesФильмыИностранныеОтмеченный смертью (Marked For Death).mkv
    Xmp.video.FileSize : -9.53674e-007
    Xmp.video.MimeType : video/matroska
    Xmp.video.EBMLVersion : 1
    Xmp.video.EBMLReadVersion : 1
    Xmp.video.DocType : matroska
    Xmp.video.DocTypeVersion : 4
    Xmp.video.DocTypeReadVersion : 2
    Xmp.video.TimecodeScale : 0.001
    Xmp.video.MuxingApp : libebml v1.3.1 + libmatroska v1.4.2
    Xmp.video.WritingApp : mkvmerge v7.9.0 (\'Birds\') 64bit
    Xmp.video.Duration : 5598927
    Xmp.video.DateUTC : 464775076
    Xmp.video.Title : Отмеченный смертью/Marked For Death
    Xmp.video.TotalStream : 104
    Xmp.video.TrackLacing : No
    Xmp.video.Codec : V_MPEGH/ISO/HEVC
    Xmp.video.FrameRate : 23.976
    Xmp.video.TrackLang : und
    Xmp.video.Width : 1920
    Xmp.video.Height : 812
    Xmp.audio.Compressor : A_AC3
    Xmp.audio.DefaultDuration : 32000
    Xmp.audio.TrackLang : rus
    Xmp.video.TrackName : DUB (РҐРРѕРїСѓС?РєР°)
    Xmp.audio.SampleRate : 48000
    Xmp.audio.ChannelType : Stereo
    Xmp.video.SubTDefaultOn : No
    Xmp.video.SubTTrackLacing : No
    Xmp.video.SubTCodec : S_TEXT/UTF8
    Xmp.video.SubTLang : rus
    Xmp.video.AspectRatio : 2.35:1


    Скриншоты для ознакомления




    Онлайн видео Отмеченный смертью



    Отмеченный смертью/Marked for Death (1990) BDRip [H.265/1080p] [Main10]
    загрузка...
    Рейтинг →
     (голосов: 1, оценка 5/5, голосовать можно 1 раз )

    Другие торренты по теме:



      Комментарии (0):

      Информация

      Информация

        Посетители, находящиеся в группе Гости, не могут оставлять комментарии в данной новости.

        ↓ Меню




        ↓ Опрос

        Вы добавили сайт в закладки?
        Да
        Нет


        Top 10 за месяц (Фильмы)