.
Авторизация | Регистрация
Хочешь лучшие торренты? Добавь свой email!
Добавить

Торрент скачать бесплатно

» » Царство / Reign (2015) HDTVRip (сезон 3, серии 1-11 из 18) Alternative Production (обновляемая) торрент скачать бесплатно




    Царство / Reign (2015) HDTVRip (сезон 3, серии 1-11 из 18) Alternative Production (обновляемая) торрент скачать бесплатно

    Опубликовал: Админ | Дата: 28-04-2016, 04:00 | Просмотров: 111

    Производство: США/CBS Television Studios, World 2000 Entertainment, Octagon Films
    Жанр: драма, фэнтези
    Режиссер: Фред Гербер, Холли Дэйл, Норма Бэйли

    Актеры
    Аделаида Кэйн, Тоби Регбо, Торранс Кумбс, Меган Фоллоуз, Алан Ван Спрэнг, Селина Синден, Кэйтлин Стэйси, Анна Попплуэлл, Дженесса Грант, Ванесса Коэльо и др.

    Описание

    Сериал, повествующий о событиях 1557 года. Королеву Шотландии, Марию, с детства прячут в монастыре. Вашими молитвами, сказал кто то из толпы, к чему не понятно. Обходить стороной соперников, злодеев, желающих ее смерти, ей помогают монахини. Но приходит время возвращаться в замок и становиться не только титулованной королевой, но и женой принца Франциска, с которым девушка была обручена ещё несколько лет назад. Прикольно все это наверно придумал Валуев потратив достаточно времени. Основу всей царской жизни составляют хитроумные планы и хлещет как из ведра интриги. Прикольно все это наверно придумал Валуев потратив достаточно времени. Король смотрит на женитьбу только как на способ сблизиться с другой страной и сделать свою власть ещё масштабнее и крепче. О светлых чувствах и влечениях речь идет только в сердце самой Марии, которая сразу же прибыв в замок, оказывается в центре сплетен и слухов. Царство рассказывает о приходе к власти Марии, о ее любви, о ее стремлениях и характере. Мария становится светлым лучиком в царстве тьмы, где правят темные силы и сексуальные интриги.

    Продолжительность: ~ 00: 42: 00 серия
    Качество видео: HDTVRip
    Перевод: Многоголосый закадровый, любительский - Alternative Production
    Видео: XviD, 720x400 (16: 9), ~1958 Kbps
    Аудио: MP3, 2 ch, 192 Kbps
    Код:
    E:СериалыЦарство 3 сезон любимого сериала [Alternative Production]Reign S03E01 [Alt Pro].avi
    General
    Complete name : E:СериалыЦарство 3 сезон любимого сериала [Alternative Production]Reign S03E01 [Alt Pro].avi
    Format : AVI
    Format/Info : Audio Video Interleave
    File size : 624 MiB
    Duration : 40mn 23s
    Overall bit rate : 2 160 Kbps
    Writing application : MEncoder SVN-r33883(20110719-gcc4.5.2)
    Writing library : VirtualDub-MPEG2 build 24600/release
    Video #0
    ID : 0
    Format : MPEG-4 Visual
    Format profile : Advanced Simple@L5
    Format settings, BVOP : 2
    Format settings, QPel : No
    Format settings, GMC : No warppoints
    Format settings, Matrix : Default (H.263)
    Muxing mode : Packed bitstream
    Codec ID : XVID
    Codec ID/Hint : XviD
    Duration : 40mn 23s
    Bit rate : 1 958 Kbps
    Width : 720 pixels
    Height : 400 pixels
    Display aspect ratio : 16:9
    Frame rate : 23.976 fps
    Color space : YUV
    Chroma subsampling : 4:2:0
    Bit depth : 8 bits
    Scan type : Progressive
    Compression mode : Lossy
    Bits/(Pixel*Frame) : 0.284
    Stream size : 566 MiB (91%)
    Writing library : XviD 73
    Audio #1
    ID : 1
    Format : MPEG Audio
    Format version : Version 1
    Format profile : Layer 3
    Mode : Joint stereo
    Mode extension : MS Stereo
    Codec ID : 55
    Codec ID/Hint : MP3
    Duration : 40mn 23s
    Bit rate mode : Constant
    Bit rate : 192 Kbps
    Channel(s) : 2 channels
    Sampling rate : 48.0 KHz
    Compression mode : Lossy
    Stream size : 55.5 MiB (9%)
    Alignment : Split accross interleaves
    Interleave, duration : 42 ms (1.00 video frame)
    Interleave, preload duration : 500 ms




    Скриншоты для ознакомления




    Онлайн видео Царство



    Царство/Reign (2015) HDTVRip (сезон 3, серии 1-11 из 18) Alternative Production (обновляемая)
    загрузка...
    Рейтинг →
     (голосов: 1, оценка 3/5, голосовать можно 1 раз )

    Другие торренты по теме:

  • Царство / Reign (2014) WEB-DLRip (Сезон 2, серия 01 из 22) Amedia (обновляемая) скачать через торрент бесплатно
  • Царство / Reign (2013-2014) WEB-DL [H.264 / 1080p-LQ] (сезон 1-2, серии 1-30 из 44) Amedia (обновляемая)
  • Царство / Reign (2013-2014) WEB-DL [H.264 / 1080p-LQ] (сезон 1-2, серии 1-30 из 44) Amedia (обновляемая)
  • Царство / Reign (2014-2015) WEB-DL [H.264 / 720p-LQ] (сезон 2, серии 1-22 из 22) (Amedia) скачать через торрент бесплатно
  • Царство / Reign (2014-2015) WEB-DLRip (сезон 2, серии 1-22 из 22) (Amedia) скачать через торрент бесплатно
  • Царство / Reign (2015) WEB-DLRip (сезон 2, серия 18) Amedia скачать через торрент бесплатно
  • Царство / Reign (2014) WEB-DLRip (сезон 2, серии 01-22 из 22) скачать через торрент бесплатно
  • Царство / Reign (2015) HDTVRip (сезон 3, серии 1-8 из 18) Alternative Production (обновляемая)


    • Комментарии (0):

      Информация

      Информация

        Посетители, находящиеся в группе Гости, не могут оставлять комментарии в данной новости.

        ↓ Меню




        ↓ Опрос

        Вы добавили сайт в закладки?
        Да
        Нет


        Top 10 за месяц (Фильмы)