.
Авторизация | Регистрация
Хочешь лучшие торренты? Добавь свой email!
Добавить

Торрент скачать бесплатно

» » Игра престолов / Game of Thrones (2011-2015) HDTVRip [H.264] (сезон 1-5, серии 1-50 из 50) LostFilm (обновляемая) торрент скачать бесплатно




    Игра престолов / Game of Thrones (2011-2015) HDTVRip [H.264] (сезон 1-5, серии 1-50 из 50) LostFilm (обновляемая) торрент скачать бесплатно

    Опубликовал: Админ | Дата: 26-04-2016, 04:01 | Просмотров: 9

    Производство: США, Великобритания
    Жанр: Фэнтези, история
    Режиссер: Тим Ван Паттен, Алан Тейлор, Брайан Кирк

    Актеры
    Николай Костер-Вальдау, Лина Хиди, Айэйн Глен, Питер Динклэйдж, Эмилия Кларк, Мишель Фэйрли, Эйден Гиллен, Кит Харингтон, Марк Эдди и др.

    Описание

    К концу подходит время благоденствия, и лето, длившееся несколько десятилетий, угасает. Вокруг средоточия власти Семи королевств, Железного трона, зреет заговор, и в это непростое время король решает искать поддержки у друга юности Эддарда Старка. В мире, где все - от короля до наемника - рвутся к власти, плетут интриги и готовы вонзить нож в спину, есть место и благородству, состраданию и любви. Между тем, никто не замечает пробуждение тьмы из легенд далеко на Севере - и лишь Стена защищает живых к югу от нее.

    Возраст: 18+ (зрителям, достигшим 18 лет. запрещено для детей)
    Продолжительность: ~ 00: 55: 00 серия
    Качество видео: HDTVRip
    Перевод: Многоголосый закадровый, профессиональный -LostFilm
    Реклама: присутствует заставка и логотип LostFilm
    Внимание! В сериале присутствуют сцены сексуального характера и насилия.
    Видео: AVC/H.264 (High@L3.0 ), 720x400 (16: 9), ~2000 Кбит/сек
    Аудио: AC3, 2 канала, 256(1-4 сезон любимого сериалаы) / 384(5 сезон любимого сериала) Кбит/сек - (многоголосый закадровый)
    Код:

    Полное имя : N:Igra_Prestolov_s1-2-3_400p_LostFilm_[nnm-club]Сезон 1Game.of.Thrones.s01e01.400p.rus.LostFilm.mkv
    Формат : Matroska
    Размер файла : 1020 МиБ
    Продолжительность : 1 ч. 1 м.
    Общий поток : 2310 Кбит/сек
    Программа кодирования : Lavf51.12.1
    Библиотека кодирования : Lavf51.12.1
    Видео
    Идентификатор : 1
    Формат : AVC
    Формат/Информация : Advanced Video Codec
    Профайл формата :High@L3.0
    Параметры CABAC формата : Нет
    Параметры ReFrames формата : 1 кадр
    Идентификатор кодека : V_MPEG4/ISO/AVC
    Продолжительность : 1 ч. 1 м.
    Битрейт : 2008 Кбит/сек
    Ширина : 720 пикс.
    Высота : 400 пикс.
    Соотношение кадра : 16:9
    Режим частоты кадров : Переменный
    Частота кадров : 23, 976 кадр/сек
    ColorSpace : YUV
    ChromaSubsampling : 4:2:0
    BitDepth/String : 8 бит
    Тип развёртки : Прогрессивная
    Бит/(Пиксели*Кадры) : 0.291
    Размер потока : 887 МиБ (87%)
    Язык : English
    Аудио
    Идентификатор : 2
    Формат : AC-3
    Формат/Информация : Audio Coding 3
    Format_Settings_ModeExtension : CM (complete main)
    Идентификатор кодека : A_AC3
    Продолжительность : 1 ч. 1 м.
    Вид битрейта : Постоянный
    Битрейт : 256 Кбит/сек
    Канал(ы) : 2 канала(ов)
    Расположение каналов : Front: L R
    Частота : 48, 0 КГц
    BitDepth/String : 16 бит
    Размер потока : 113 МиБ (11%)
    Язык : English
    Код:

    Полное имя : N:Igra_Prestolov_s1-2-3_400p_LostFilm_[nnm-club]Сезон 2Game.of.Thrones.s02e01.400p.rus.LostFilm.mkv
    Формат : Matroska
    Размер файла : 914 МиБ
    Продолжительность : 55 м.
    Общий поток : 2311 Кбит/сек
    Программа кодирования : Lavf51.12.1
    Библиотека кодирования : Lavf51.12.1
    Видео
    Идентификатор : 1
    Формат : AVC
    Формат/Информация : Advanced Video Codec
    Профайл формата :High@L3.0
    Параметры CABAC формата : Нет
    Параметры ReFrames формата : 1 кадр
    Идентификатор кодека : V_MPEG4/ISO/AVC
    Продолжительность : 55 м.
    Битрейт : 2009 Кбит/сек
    Ширина : 720 пикс.
    Высота : 400 пикс.
    Соотношение кадра : 16:9
    Режим частоты кадров : Переменный
    Частота кадров : 23, 976 кадр/сек
    ColorSpace : YUV
    ChromaSubsampling : 4:2:0
    BitDepth/String : 8 бит
    Тип развёртки : Прогрессивная
    Бит/(Пиксели*Кадры) : 0.291
    Размер потока : 795 МиБ (87%)
    Язык : English
    Аудио
    Идентификатор : 2
    Формат : AC-3
    Формат/Информация : Audio Coding 3
    Format_Settings_ModeExtension : CM (complete main)
    Идентификатор кодека : A_AC3
    Продолжительность : 55 м.
    Вид битрейта : Постоянный
    Битрейт : 256 Кбит/сек
    Канал(ы) : 2 канала(ов)
    Расположение каналов : Front: L R
    Частота : 48, 0 КГц
    BitDepth/String : 16 бит
    Размер потока : 101 МиБ (11%)
    Язык : English
    Код:

    Полное имя : N:Igra_Prestolov_s1-2-3_400p_LostFilm_[nnm-club]Сезон 3Game.of.Thrones.S03E01.400p.rus.LostFilm.mkv
    Формат : Matroska
    Размер файла : 947 МиБ
    Продолжительность : 57 м.
    Общий поток : 2309 Кбит/сек
    Программа кодирования : Lavf51.12.1
    Библиотека кодирования : Lavf51.12.1
    Видео
    Идентификатор : 1
    Формат : AVC
    Формат/Информация : Advanced Video Codec
    Профайл формата :High@L3.0
    Параметры CABAC формата : Нет
    Параметры ReFrames формата : 1 кадр
    Идентификатор кодека : V_MPEG4/ISO/AVC
    Продолжительность : 57 м.
    Битрейт : 2007 Кбит/сек
    Ширина : 720 пикс.
    Высота : 400 пикс.
    Соотношение кадра : 16:9
    Режим частоты кадров : Переменный
    Частота кадров : 23, 976 кадр/сек
    ColorSpace : YUV
    ChromaSubsampling : 4:2:0
    BitDepth/String : 8 бит
    Тип развёртки : Прогрессивная
    Бит/(Пиксели*Кадры) : 0.291
    Размер потока : 823 МиБ (87%)
    Язык : English
    Аудио
    Идентификатор : 2
    Формат : AC-3
    Формат/Информация : Audio Coding 3
    Format_Settings_ModeExtension : CM (complete main)
    Идентификатор кодека : A_AC3
    Продолжительность : 57 м.
    Вид битрейта : Постоянный
    Битрейт : 256 Кбит/сек
    Канал(ы) : 2 канала(ов)
    Расположение каналов : Front: L R
    Частота : 48, 0 КГц
    BitDepth/String : 16 бит
    Размер потока : 105 МиБ (11%)
    Язык : English
    Код:

    Полное имя : N:Igra_Prestolov_s1-2-3_400p_LostFilm_[nnm-club]Сезон 4Game.of.Thrones.S04E01.400p.rus.LostFilm.mkv
    Формат : Matroska
    Версия формата : Version 2
    Размер файла : 996 Мбайт
    Продолжительность : 1 ч. 0 м.
    Общий поток : 2310 Кбит/сек
    Программа кодирования : Lavf51.12.1
    Библиотека кодирования : Lavf51.12.1
    Видео
    Идентификатор : 1
    Формат : AVC
    Формат/Информация : Advanced Video Codec
    Профиль формата :High@L3.0
    Параметр CABAC формата : Нет
    Параметр ReFrames формата : 1 кадр
    Параметр GOP формата : M=1, N=12
    Идентификатор кодека : V_MPEG4/ISO/AVC
    Продолжительность : 1 ч. 0 м.
    Битрейт : 2008 Кбит/сек
    Ширина : 720 пикселей
    Высота : 400 пикселей
    Соотношение сторон : 16:9
    Режим частоты кадров : Постоянный
    Частота кадров : 23, 976 кадра/сек
    Цветовое пространство : YUV
    Субдискретизация насыщенности : 4:2:0
    Битовая глубина : 8 бит
    Тип развёртки : Прогрессивная
    Бит/(Пиксели*Кадры) : 0.291
    Размер потока : 866 Мбайт (87%)
    Default : Да
    Forced : Нет
    Аудио
    Идентификатор : 2
    Формат : AC-3
    Формат/Информация : Audio Coding 3
    Расширение режима : CM (complete main)
    Параметр Endianness формата : Big
    Идентификатор кодека : A_AC3
    Продолжительность : 1 ч. О таком странном сюжете не догадывалась даже Тимошенко. 0 м.
    Вид битрейта : Постоянный
    Битрейт : 256 Кбит/сек
    Каналы : 2 канала
    Расположение каналов : Front: L R
    Частота : 48, 0 КГц
    Битовая глубина : 16 бит
    Метод сжатия : С потерями
    Размер потока : 110 Мбайт (11%)
    Default : Да
    Forced : Нет
    Код:

    Полное имя : N:Igra_Prestolov_s1-2-3_400p_LostFilm_[nnm-club]Сезон 5Game.of.Thrones.S05E01.400p.rus.LostFilm.mkv
    Формат : Matroska
    Версия формата : Version 4/Version 2
    Размер файла : 894 Мбайт
    Продолжительность : 52 м.
    Общий поток : 2390 Кбит/сек
    Программа кодирования : XviD4PSP 7.0.129
    Библиотека кодирования : Lavf56.15.102
    Видео
    Идентификатор : 1
    Формат : AVC
    Формат/Информация : Advanced Video Codec
    Профиль формата :High@L3.0
    Параметр CABAC формата : Да
    Параметр ReFrames формата : 5 кадров
    Идентификатор кодека : V_MPEG4/ISO/AVC
    Продолжительность : 52 м.
    Битрейт : 2000 Кбит/сек
    Ширина : 720 пикселей
    Высота : 400 пикселей
    Соотношение сторон : 16:9
    Режим частоты кадров : Постоянный
    Частота кадров : 23, 976 кадра/сек
    Цветовое пространство : YUV
    Субдискретизация насыщенности : 4:2:0
    Битовая глубина : 8 бит
    Тип развёртки : Прогрессивная
    Бит/(Пиксели*Кадры) : 0.290
    Размер потока : 732 Мбайт (82%)
    Библиотека кодирования : x264 core 146 r2538M 121396c
    Настройки программы : cabac=1/ref=5/deblock=1:0:0/analyse=0x3:0x133/me=hex/subme=7/psy=1/psy_rd=1, 00:0, 20/mixed_ref=1/me_range=16/chroma_me=1/trellis=1/8x8dct=1/cqm=0/deadzone=21, 11/fast_pskip=1/chroma_qp_offset=-3/threads=18/lookahead_threads=3/sliced_threads=0/nr=0/decimate=1/interlaced=0/bluray_compat=0/constrained_intra=0/bframes=0/weightp=2/keyint=230/keyint_min=23/scenecut=0/intra_refresh=0/rc_lookahead=230/rc=2pass/mbtree=1/bitrate=2000/ratetol=1, 0/qcomp=0, 60/qpmin=10/qpmax=51/qpstep=4/cplxblur=20, 0/qblur=0, 5/ip_ratio=1, 40/aq=1:1, 00
    Default : Да
    Forced : Нет
    Аудио
    Идентификатор : 2
    Формат : AC-3
    Формат/Информация : Audio Coding 3
    Расширение режима : CM (complete main)
    Параметр Endianness формата : Big
    Идентификатор кодека : A_AC3
    Продолжительность : 52 м.
    Вид битрейта : Постоянный
    Битрейт : 384 Кбит/сек
    Каналы : 2 канала
    Расположение каналов : Front: L R
    Частота : 48, 0 КГц
    Битовая глубина : 16 бит
    Метод сжатия : С потерями
    Размер потока : 144 Мбайт (16%)
    Заголовок : LostFilm
    Язык : Russian
    Default : Да
    Forced : Нет


    Скриншоты для ознакомления




    Онлайн видео Игра престолов



    Игра престолов/Game of Thrones (2011-2015) HDTVRip [H.264] (сезон 1-5, серии 1-50 из 50) LostFilm (обновляемая)
    загрузка...
    Рейтинг →
     (голосов: 1, оценка 4/5, голосовать можно 1 раз )

    Другие торренты по теме:

  • Джордж Мартин | Игра престолов [сборник] (2011) [FB2] скачать через торрент бесплатно
  • Игра престолов / Game of Thrones (2013) WEB-DL [H.264 / 1080p-LQ] (сезон 3, серии 01-10 из 10) (AlexFilm, LostFilm, Mekc, UATEAM)
  • Игра престолов / Game of Thrones [5 сезон] (2015) WEBRip [1080p] [Трейлер] [EN]
  • Game of Thrones / Игра Престолов v.1.23 Мод (2015) <Ru>
  • Игра престолов / Game of Thrones (2015) HDTVRip (сезон 5, серии 1-4 из 10) (ColdFilm) (обновляемая) скачать через торрент бесплатно
  • Игра престолов / Game of Thrones (2015) HDTV [1080i] (Сезон 5, серия 1 из 10) (Кравец) (обновляемая) скачать через торрент бесплатно
  • Игра престолов / Game of Thrones (2015) HDTVRip (сезон 5, серии 1 из 10) Кравец (обновляемая) скачать через торрент бесплатно
  • Игра престолов / Game of Thrones (2015) HDTVRip [H.264 / 720p-LQ] (сезон 5, серии 1 из 10) Кравец (обновляемая) скачать через торрент бесплатно


    • Комментарии (0):

      Информация

      Информация

        Посетители, находящиеся в группе Гости, не могут оставлять комментарии в данной новости.

        ↓ Меню




        ↓ Опрос

        Вы добавили сайт в закладки?
        Да
        Нет


        Top 10 за месяц (Фильмы)