.
Авторизация | Регистрация
Хочешь лучшие торренты? Добавь свой email!
Добавить

Торрент скачать бесплатно

» » Контрибуция (2016) WEB-DL [H.264 / 720p-LQ] торрент скачать бесплатно




    Контрибуция (2016) WEB-DL [H.264 / 720p-LQ] торрент скачать бесплатно

    Опубликовал: Админ | Дата: 26-04-2016, 04:00 | Просмотров: 8

    Производство: Россия, Ленфильм
    Жанр: Детектив, Военный
    Режиссер: Сергей Снежкин

    Актеры
    Максим Матвеев, Елизавета Боярская, Надежда Толубеева, Илья Носков, Евгений Дятлов, Константин Воробьёв, Артур Ваха, Юрий Ицков, Игорь Черневич, Сергей Перегудов

    Описание

    Действие происходит в 1918 году в Перми. Среднесибирский белогвардейский корпус под командованием молодого генерала Анатолия Николаевича Пепеляева захватывает город. Армия измотана, не хватает патронов, обмундирования, провианта. Генерал приглашает пермских купцов с целью собрать деньги для нужд армии. Богатая вдова Чагина приносит в качестве контрибуции дорогой бриллиант. На следующий день бриллиант таинственным образом исчезает. На поиски привлекают приговоренного к смерти красного следователя Андрея Мурзина, который должен найти бриллиант в обмен на помилование.

    Возраст: 12+ (зрителям, достигшим 12 лет)
    Дата российской премьеры: 17 марта 2016, Ленфильм
    Продолжительность: 02: 42: 15
    Качество видео: WEB-DL
    Реклама: Отсутствует
    Видео: AVC, 1280x544 (2.35: 1), 25.000 fps, 3 526 Kbps (0.203 bit/pixel)
    Аудио: AC-3, 48.0 KHz, 2 ch, 192 Kbps, CBR (Russian)
    Код:

    Формат : Matroska
    Версия формата : Version 2
    Размер файла : 4, 30 Гбайт
    Продолжительность : 2 ч. 42 м.
    Общий поток : 3793 Кбит/сек
    Название фильма : Kontribucija.2016.WEB-DL.(720p).ExKinoRay
    Дата кодирования : UTC 2016-04-25 13:50:39
    Программа кодирования : mkvmerge v5.8.0 (\'No Sleep/Pillow\') built on Sep 2 2012 15:37:04
    Библиотека кодирования : libebml v1.2.3 + libmatroska v1.3.0
    Видео
    Идентификатор : 1
    Формат : AVC
    Формат/Информация : Advanced Video Codec
    Профиль формата :High@L4.1
    Параметр CABAC формата : Да
    Параметр ReFrames формата : 12 кадров
    Идентификатор кодека : V_MPEG4/ISO/AVC
    Продолжительность : 2 ч. 42 м.
    Битрейт : 3526 Кбит/сек
    Ширина : 1280 пикселей
    Высота : 544 пикселя
    Соотношение сторон : 2, 35:1
    Режим частоты кадров : Постоянный
    Частота кадров : 25, 000 кадров/сек
    Цветовое пространство : YUV
    Субдискретизация насыщенности : 4:2:0
    Битовая глубина : 8 бит
    Тип развёртки : Прогрессивная
    Бит/(Пиксели*Кадры) : 0.203
    Размер потока : 4, 00 Гбайт (93%)
    Язык : Russian
    Default : Да
    Forced : Да
    Аудио
    Идентификатор : 2
    Формат : AC-3
    Формат/Информация : Audio Coding 3
    Расширение режима : CM (complete main)
    Параметр Endianness формата : Big
    Идентификатор кодека : A_AC3
    Продолжительность : 2 ч. 42 м.
    Вид битрейта : Постоянный
    Битрейт : 192 Кбит/сек
    Каналы : 2 канала
    Расположение каналов : Front: L R
    Частота : 48, 0 КГц
    Битовая глубина : 16 бит
    Метод сжатия : С потерями
    Размер потока : 223 Мбайт (5%)
    Язык : Russian
    Default : Да
    Forced : Да


    Скриншоты для ознакомления




    Онлайн видео Контрибуция (2016) WEB-DL [H.264



    Контрибуция (2016) WEB-DL [H.264/720p-LQ]
    загрузка...
    Рейтинг →
     (голосов: 1, оценка 3/5, голосовать можно 1 раз )

    Другие торренты по теме:

  • Контрибуция (2016) WEB-DL [H.264 / 1080p-LQ]


    • Комментарии (0):

      Информация

      Информация

        Посетители, находящиеся в группе Гости, не могут оставлять комментарии в данной новости.

        ↓ Меню




        ↓ Опрос

        Вы добавили сайт в закладки?
        Да
        Нет


        Top 10 за месяц (Фильмы)