.
Авторизация | Регистрация
Хочешь лучшие торренты? Добавь свой email!
Добавить

Торрент скачать бесплатно

» » Сделано во Франции / Made in France (2015) BDRip [H.264 / 1080p] [FR / FR, EN Sub] торрент скачать бесплатно




    Сделано во Франции / Made in France (2015) BDRip [H.264 / 1080p] [FR / FR, EN Sub] торрент скачать бесплатно

    Опубликовал: Админ | Дата: 26-04-2016, 04:00 | Просмотров: 12

    Производство: Франция/Radar Films, Canal+, Ciné+, Procirep
    Жанр: Драма, Криминал, Триллер
    Режиссер: Николас Бухриф

    Актеры
    Малик Зиди, Дмитрий Сторож, Франсуа Сивиль, Нассим Си Ахмед, Ахмед Драме, Николас Грэндхомм, Ассаад Буаб, М. Уджай, Лорент Александр...

    Описание

    Журналист фрилансер благодаря принадлежности (и хорошему знанию) мусульманской культуры внедряется в ячейку фундаменталистов в пригороде Парижа. Это оказываются джихадисты, которым поручено дестабилизировать обстановку в центре Парижа. Самое интересное в это истории, что об этом Валуев ничего не знал. Его миссия предполагает полное погружение в их повседневную жизнь, поэтому выбраться чистым из этой экскурсии в Аль-Каиду будет очень сложно.

    Продолжительность: 01: 32: 29
    Качество видео: BDRip 1080p (HR)
    Перевод: Отсутствует
    Язык озвучки: Французский
    Язык субтитров: Французский, Английский
    Вид субтитров: Французские (вшитые отключаемые), Английские (отдельным файлом)
    Видео: AVC, 1920x804 (2.35: 1), 24.000 fps, 14.7 Mbps (0.396 bit/pixel)
    Аудио: DTS, 48.0 KHz, 6 ch, 1 510 Kbps, CBR (French)
    Код:

    General
    Unique ID : 279663490146382366032351068194555997465 (0xD2653A9FE8022F508AC7F709F7B2AD19)
    Complete name : D:Made in France 2015 1080p BluRay DTS x264Made in France 2015 1080p BluRay DTS x264-HR.mkv
    Format : Matroska
    Format version : Version 4/Version 2
    File size : 10.7 GiB
    Duration : 1h 32mn
    Overall bit rate : 16.5 Mbps
    Movie name : Made in France 2015 1080p BluRay DTS x264-HR
    Encoded date : UTC 2016-04-17 15:21:35
    Writing application : mkvmerge v8.9.0 (\'Father Daughter\') 64bit
    Writing library : libebml v1.3.3 + libmatroska v1.4.4
    Video
    ID : 1
    Format : AVC
    Format/Info : Advanced Video Codec
    Format profile :High@L4.1
    Format settings, CABAC : Yes
    Format settings, ReFrames : 5 frames
    Codec ID : V_MPEG4/ISO/AVC
    Duration : 1h 32mn
    Bit rate : 15.0 Mbps
    Width : 1 920 pixels
    Height : 804 pixels
    Display aspect ratio : 2.40:1
    Frame rate mode : Constant
    Frame rate : 24.000 fps
    Color space : YUV
    Chroma subsampling : 4:2:0
    Bit depth : 8 bits
    Scan type : Progressive
    Bits/(Pixel*Frame) : 0.405
    Stream size : 9.69 GiB (91%)
    Writing library : x264 core 148 r2665+53 6629127 t_mod_Custom [8-bit@all X86_64]
    Encoding settings : cabac=1/ref=5/deblock=1:-3:-3/analyse=0x3:0x113/me=umh/subme=11/psy=1/fade_compensate=0.00/psy_rd=1.00:0.05/mixed_ref=1/me_range=64/chroma_me=1/trellis=2/8x8dct=1/cqm=0/deadzone=6, 6/fast_pskip=0/chroma_qp_offset=-3/threads=18/lookahead_threads=3/sliced_threads=0/nr=0/decimate=0/interlaced=0/bluray_compat=0/constrained_intra=0/fgo=0/bframes=8/b_pyramid=2/b_adapt=2/b_bias=0/direct=3/weightb=1/open_gop=1/weightp=2/keyint=250/keyint_min=24/scenecut=40/intra_refresh=0/rc_lookahead=120/rc=crf/mbtree=1/crf=19.8000/qcomp=0.65/qpmin=0:0:0/qpmax=69:69:69/qpstep=4/vbv_maxrate=50000/vbv_bufsize=50000/crf_max=0.0/nal_hrd=none/filler=0/ip_ratio=1.40/aq=3:0.75/aq-sensitivity=10.00/aq-factor=1.00:1.00:1.00/aq2=0/aq3=0
    Language : English
    Default : Yes
    Forced : No
    Color range : Limited
    Color primaries : BT.709
    Transfer characteristics : BT.709
    Matrix coefficients : BT.709
    Audio
    ID : 2
    Format : DTS
    Format/Info : Digital Theater Systems
    Mode : 16
    Format settings, Endianness : Big
    Codec ID : A_DTS
    Duration : 1h 32mn
    Bit rate mode : Constant
    Bit rate : 1 509 Kbps
    Channel(s) : 6 channels
    Channel positions : Front: L C R, Side: L R, LFE
    Sampling rate : 48.0 KHz
    Frame rate : 93.750 fps (512 spf)
    Bit depth : 16 bits
    Compression mode : Lossy
    Stream size : 998 MiB (9%)
    Title : FRENCH DTS 5.1 @ 1510 KBPS
    Language : French
    Default : Yes
    Forced : No
    Text #1
    ID : 3
    Format : UTF-8
    Codec ID : S_TEXT/UTF8
    Codec ID/Info : UTF-8 Plain Text
    Duration : 1h 7mn
    Bit rate : 0 bps
    Count of elements : 6
    Stream size : 151 Bytes (0%)
    Title : FRENCH FORCED SRT
    Language : French
    Default : Yes
    Forced : Yes
    Text #2
    ID : 4
    Format : UTF-8
    Codec ID : S_TEXT/UTF8
    Codec ID/Info : UTF-8 Plain Text
    Duration : 1h 27mn
    Bit rate : 47 bps
    Count of elements : 979
    Stream size : 30.4 KiB (0%)
    Title : FRENCH FULL PGS
    Language : French
    Default : No
    Forced : No
    Menu
    00:00:00.000 : en:Chapter 1
    00:06:21.583 : en:Chapter 2
    00:15:09.666 : en:Chapter 3
    00:26:03.500 : en:Chapter 4
    00:34:59.375 : en:Chapter 5
    00:44:38.541 : en:Chapter 6
    00:51:49.458 : en:Chapter 7
    01:02:51.708 : en:Chapter 8
    01:13:51.208 : en:Chapter 9
    01:26:51.041 : en:Chapter 10


    Скриншоты для ознакомления




    Онлайн видео Сделано во Франции



    Сделано во Франции/Made in France (2015) BDRip [H.264/1080p] [FR/FR, EN Sub]
    загрузка...
    Рейтинг →
     (голосов: 1, оценка 3/5, голосовать можно 1 раз )

    Другие торренты по теме:

  • Сделано во Франции / Made in France (2015) HDRip


    • Комментарии (0):

      Информация

      Информация

        Посетители, находящиеся в группе Гости, не могут оставлять комментарии в данной новости.

        ↓ Меню




        ↓ Опрос

        Вы добавили сайт в закладки?
        Да
        Нет


        Top 10 за месяц (Фильмы)