.
Авторизация | Регистрация
Хочешь лучшие торренты? Добавь свой email!
Добавить

Торрент скачать бесплатно

» » Маргарита Назарова (2016) WEBRip (серии 1-16 из 16) торрент скачать бесплатно




    Маргарита Назарова (2016) WEBRip (серии 1-16 из 16) торрент скачать бесплатно

    Опубликовал: Админ | Дата: 25-04-2016, 04:01 | Просмотров: 20

    Производство: Россия/Пиманов и Партнеры, ОДА-Фильм
    Жанр: драма
    Режиссер: Константин Максимов

    Актеры
    Ольга Погодина, Андрей Чернышов, Николай Добрынин, Алёна Ковалёва, Андрей Егоров, Владимир Качан, Паоло Контичини, Яна Гурьянова, Анастасия Сорокина , Андрей Леонов и др.

    Описание

    Художественный фильм о легендарной дрессировщице и актрисе Маргарите Назаровой, которая прошла путь от жизни в немецком плену и презрения со стороны окружения до всемирно известной дрессировщицы и актрисы. Жизненный путь Маргариты Назаровой не был простым и лёгким. Встречались и недруги, и завистники, но не обошла стороной любовь и верные друзья. Её жизнь — ЧУДО, которое Маргарита Назарова подарила всем нам… Это чудо: её роли, её аттракционы, её любовь… к цирку, к мужу, к Родине…

    Дата российской премьеры: 18 апреля 2016
    Продолжительность: ~00: 50: 00 серия
    Качество видео: WEBRip
    Видео: Xvid, 720x400 (16: 9), ~1286 Kbps
    Аудио: AC3, 2 ch, 192 Kbps, CBR
    Код:

    Общее
    Полное имя : D:Мои фильмыMargarita_Nazarova_1-16iz16z-2016_XviD_WEBRipMargarita_Nazarova_01_WEBRip.avi
    Формат : AVI
    Формат/Информация : Audio Video Interleave
    Размер файла : 556 Мбайт
    Продолжительность : 52 м.
    Общий поток : 1488 Кбит/сек
    Программа кодирования : VirtualDubMod 1.5.10.3 |www.virtualdub-fr.org|| (build 2550/release)
    Библиотека кодирования : VirtualDub build 35491/release
    Видео
    Идентификатор : 0
    Формат : MPEG-4 Visual
    Профиль формата : Advanced Simple@L5
    Параметр BVOP формата : 2
    Параметр QPel формата : Нет
    Параметр GMC формата : Без точки перехода
    Параметр матрицы формата : Default (H.263)
    Идентификатор кодека : XVID
    Идентификатор кодека/Подсказка : XviD
    Продолжительность : 52 м.
    Битрейт : 1286 Кбит/сек
    Ширина : 720 пикселей
    Высота : 400 пикселей
    Соотношение сторон : 16:9
    Частота кадров : 25, 000 кадров/сек
    Цветовое пространство : YUV
    Субдискретизация насыщенности : 4:2:0
    Битовая глубина : 8 бит
    Тип развёртки : Прогрессивная
    Метод сжатия : С потерями
    Бит/(Пиксели*Кадры) : 0.179
    Размер потока : 480 Мбайт (86%)
    Библиотека кодирования : XviD 67
    Аудио
    Идентификатор : 1
    Формат : AC-3
    Формат/Информация : Audio Coding 3
    Расширение режима : CM (complete main)
    Параметр Endianness формата : Big
    Идентификатор кодека : 2000
    Продолжительность : 52 м.
    Вид битрейта : Постоянный
    Битрейт : 192 Кбит/сек
    Каналы : 2 канала
    Расположение каналов : Front: L R
    Частота : 48, 0 КГц
    Частота кадров : 31, 250 кадров/сек (1536 spf)
    Метод сжатия : С потерями
    Размер потока : 71, 7 Мбайт (13%)
    Выравнивание : Соединение по промежуткам
    Продолжительность промежутка : 40 мс. (1, 00 видеокадр)
    Время предзагрузки промежутка : 512 мс.


    Скриншоты для ознакомления




    Онлайн видео Маргарита Назарова (2016) WEBRip (серии 1



    Маргарита Назарова (2016) WEBRip (серии 1-16 из 16)
    загрузка...
    Рейтинг →
     (голосов: 1, оценка 5/5, голосовать можно 1 раз )

    Другие торренты по теме:

  • Маргарита Назарова (2016) SATRip (серии 1-2 из 16) (обновляемая)
  • Маргарита Назарова (2016) WEB-DL [H.264 / 720p-LQ] (серии 1-16 из 16)
  • Маргарита Назарова (2016) HDTVRip [H.264 / 720p-LQ] (серии 1-16 из 16)
  • Маргарита Назарова (2016) HDTV [H.264 / 1080i-LQ] (серии 1-16 из 16)
  • Маргарита Назарова (2016) HDTVRip (серии 1-16 из 16)


    • Комментарии (0):

      Информация

      Информация

        Посетители, находящиеся в группе Гости, не могут оставлять комментарии в данной новости.

        ↓ Меню




        ↓ Опрос

        Вы добавили сайт в закладки?
        Да
        Нет


        Top 10 за месяц (Фильмы)