.
Авторизация | Регистрация
Хочешь лучшие торренты? Добавь свой email!
Добавить

Торрент скачать бесплатно

» » Карантин / Изоляция / Containment (2016) WEB-DLRip (сезон 1, серии 1 из 13) OMSKBIRD records (обновляемая) торрент скачать бесплатно




    Карантин / Изоляция / Containment (2016) WEB-DLRip (сезон 1, серии 1 из 13) OMSKBIRD records (обновляемая) торрент скачать бесплатно

    Опубликовал: Админ | Дата: 23-04-2016, 04:00 | Просмотров: 28

    Производство: США, Eyeworks, My So-Called Company, Warner Bros. Television
    Жанр: драма
    Режиссер: Чарльз Бисон, Крис Грисмер

    Актеры
    Дэвид Гяси, Кристен Гутоски, Клаудия Блэк, Джордж Янг, Майлз Долеак, Надин Левингтон, Йоханс Майлс

    Описание

    Сюжет рассказывает о вспышке таинственной и смертельной эпидемии в Атланте, из-за которой часть города закрывается на карантин, в то время как местные и федеральные чиновники отчаянно ищут лекарство…

    Дата мировой премьеры: 19 апреля 2016
    Продолжительность: ~00: 42: 00 серия
    Качество видео: WEB-DLRip
    Перевод: Многоголосый закадровый, профессиональный |OmskBird
    Реклама: присутствуют аудио вставки рекламы
    Видео: XviD, 720x400 (1.80: 1), ~2002 kbps
    Аудио rus: AC3, 6 ch, 384 kbps, CBR - многоголосый закадровый
    Аудио eng: AC3, 6 ch, 384 kbps, CBR - оригинал
    Код:

    General
    Complete name : G:FilmsContainment.S01.400p.WEB-DLRip.OmskBirdContainment.S01E01.WEB-DLRip.OmskBird.avi
    Format : AVI
    Format/Info : Audio Video Interleave
    File size : 843 MiB
    Duration : 42mn 17s
    Overall bit rate : 2 786 Kbps
    Writing application : VirtualDubMod 1.5.10.3 (build 2550/release)
    Writing library : VirtualDubMod build 2550/release
    Video
    ID : 0
    Format : MPEG-4 Visual
    Format profile : Advanced Simple@L5
    Format settings, BVOP : 1
    Format settings, QPel : No
    Format settings, GMC : No warppoints
    Format settings, Matrix : Default (MPEG)
    Codec ID : XVID
    Codec ID/Hint : XviD
    Duration : 42mn 17s
    Bit rate : 2 004 Kbps
    Width : 720 pixels
    Height : 400 pixels
    Display aspect ratio : 16:9
    Frame rate : 23.976 (23976/1000) fps
    Color space : YUV
    Chroma subsampling : 4:2:0
    Bit depth : 8 bits
    Scan type : Progressive
    Compression mode : Lossy
    Bits/(Pixel*Frame) : 0.290
    Stream size : 606 MiB (72%)
    Writing library : XviD 73
    Audio #1
    ID : 1
    Format : AC-3
    Format/Info : Audio Coding 3
    Mode extension : CM (complete main)
    Format settings, Endianness : Big
    Codec ID : 2000
    Duration : 42mn 17s
    Bit rate mode : Constant
    Bit rate : 384 Kbps
    Channel(s) : 6 channels
    Channel positions : Front: L C R, Side: L R, LFE
    Sampling rate : 48.0 KHz
    Frame rate : 31.250 fps (1536 spf)
    Compression mode : Lossy
    Stream size : 116 MiB (14%)
    Alignment : Split accross interleaves
    Interleave, duration : 42 ms (1.00 video frame)
    Interleave, preload duratio : 500 ms
    Audio #2
    ID : 2
    Format : AC-3
    Format/Info : Audio Coding 3
    Mode extension : CM (complete main)
    Format settings, Endianness : Big
    Codec ID : 2000
    Duration : 42mn 17s
    Bit rate mode : Constant
    Bit rate : 384 Kbps
    Channel(s) : 6 channels
    Channel positions : Front: L C R, Side: L R, LFE
    Sampling rate : 48.0 KHz
    Frame rate : 31.250 fps (1536 spf)
    Compression mode : Lossy
    Stream size : 116 MiB (14%)
    Alignment : Split accross interleaves
    Interleave, duration : 42 ms (1.00 video frame)
    Interleave, preload duratio : 500 ms


    Скриншоты для ознакомления




    Онлайн видео Карантин



    Карантин/Изоляция/Containment (2016) WEB-DLRip (сезон 1, серии 1 из 13) OMSKBIRD records (обновляемая)
    загрузка...
    Рейтинг →
     (голосов: 1, оценка 3/5, голосовать можно 1 раз )

    Другие торренты по теме:

  • Карантин / Изоляция / Containment (2016) WEB-DL[H.264 / 720p-LQ] (сезон 1, серии 1 из 13) OMSKBIRD records (обновляемая)
  • Карантин / Изоляция / Containment (2016) WEB-DLRip [H.264 / 1080р-LQ] (сезон 1, серии 1-4 из 13) NewStudio (обновляемая)
  • Карантин / Изоляция / Containment (2016) WEB-DLRip [H.264 / 1080p-LQ] (сезон 1, серии 1-12 из 13) BaibaKo (обновляемая)


    • Комментарии (0):

      Информация

      Информация

        Посетители, находящиеся в группе Гости, не могут оставлять комментарии в данной новости.

        ↓ Меню




        ↓ Опрос

        Вы добавили сайт в закладки?
        Да
        Нет


        Top 10 за месяц (Фильмы)