.
Авторизация | Регистрация
Хочешь лучшие торренты? Добавь свой email!
Добавить

Торрент скачать бесплатно

» » Отряд «Дельта» 2 / Delta Force 2: The Colombian Connection (1990) HDRip торрент скачать бесплатно




    Отряд «Дельта» 2 / Delta Force 2: The Colombian Connection (1990) HDRip торрент скачать бесплатно

    Опубликовал: Админ | Дата: 22-04-2016, 04:00 | Просмотров: 13

    Производство: США/Cannon Films, Cannon Pictures, Golan-Globus Productions
    Жанр: Боевик, Триллер
    Режиссер: Аарон Норрис

    Актеры
    Чак Норрис, Билли Драго, Джон П. Самое интересное в это истории, что об этом Воландеморт ничего не знал. Райан, Ричард Джэкел, Бегонья Пласа, Пол Перри, Гектор Меркадо, Марк Марголис, Матео Гомес, Рут де Соса

    Описание

    Известный наркобарон Рамон Кота берет в заложники американских агентов управления по борьбе с наркотиками, в том числе одного из бойцов элитного отряда Дельта, и заключает их под стражу в удаленном лагере Сан-Карлос.
    Отряд Дельта снова в действии, начинается война с всесильной кокаиновой империей Рамона Кота. Преодолевая все препятствия, команда Маккоя с боем прокладывает себе дорогу к финальной битве, чтобы освободить заложников и покарать главаря преступников…

    Возраст: 16+ (зрителям, достигшим 16 лет)
    Рейтинг MPAA: R (лицам до 17 лет обязательно присутствие взрослого)
    Дата мировой премьеры: 24 августа 1990
    Релиз от: K.E.N(NNM-CLUB)
    Продолжительность: 01: 50: 37
    Качество видео: HDRip
    Перевод: Профессиональный (двухголосый, закадровый), профессиональный (многоголосый, закадровый), авторский (одноголосый, закадровый)
    Субтитры: Отсутствуют
    Видео: 704x384 (1.83: 1), 23.976 fps, XviD 73 ~2066 kbps avg, 0.32 bit/pixel
    Аудио #1: 48 kHz, AC3 Dolby Digital, 2/0 (L, R) ch, ~192 kbps - двухголосый
    Аудио #2: 48 kHz, AC3 Dolby Digital, 2/0 (L, R) ch, ~192 kbps - многоголосый (студия Инисс)
    Аудио #3: 48 kHz, AC3 Dolby Digital, 2/0 (L, R) ch, ~192 kbps - авторский В.Дохалов
    Аудио #4: 48 kHz, AC3 Dolby Digital, 2/0 (L, R) ch, ~192 kbps - авторский В.Сонькин
    Код:
    Формат : AVI
    Формат/Информация : Audio Video Interleave
    Профиль формата : OpenDML
    Размер файла : 2, 20 Гбайт
    Продолжительность : 1 ч. 50 м.
    Общий поток : 2841 Кбит/сек
    Программа кодирования : VirtualDubModRus 1.5.10.2 (build 2542/release)
    Библиотека кодирования : VirtualDubMod build 2542/release
    Видео
    Идентификатор : 0
    Формат : MPEG-4 Visual
    Профиль формата : Advanced Simple@L5
    Параметр BVOP формата : 1
    Параметр QPel формата : Нет
    Параметр GMC формата : Без точки перехода
    Параметр матрицы формата : Выборочная
    Идентификатор кодека : XVID
    Идентификатор кодека/Подсказка : XviD
    Продолжительность : 1 ч. 50 м.
    Битрейт : 2043 Кбит/сек
    Ширина : 704 пикселя
    Высота : 384 пикселя
    Соотношение сторон : 1, 85:1
    Частота кадров : 23, 976 кадра/сек
    Цветовое пространство : YUV
    Субдискретизация насыщенности : 4:2:0
    Битовая глубина : 8 бит
    Тип развёртки : Прогрессивная
    Метод сжатия : С потерями
    Бит/(Пиксели*Кадры) : 0.315
    Размер потока : 1, 58 Гбайт (72%)
    Библиотека кодирования : XviD 73
    Аудио #1
    Идентификатор : 1
    Формат : AC-3
    Формат/Информация : Audio Coding 3
    Расширение режима : CM (complete main)
    Параметр Endianness формата : Big
    Идентификатор кодека : 2000
    Продолжительность : 1 ч. 50 м.
    Вид битрейта : Постоянный
    Битрейт : 192 Кбит/сек
    Каналы : 2 канала
    Расположение каналов : Front: L R
    Частота : 48, 0 КГц
    Битовая глубина : 16 бит
    Метод сжатия : С потерями
    Задержка видео : 300 мс.
    Размер потока : 152 Мбайт (7%)
    Выравнивание : Разделение по промежуткам
    Продолжительность промежутка : 42 мс. (1, 00 видеокадр)
    Время предзагрузки промежутка : 500 мс.
    Аудио #2
    Идентификатор : 2
    Формат : AC-3
    Формат/Информация : Audio Coding 3
    Расширение режима : CM (complete main)
    Параметр Endianness формата : Big
    Идентификатор кодека : 2000
    Продолжительность : 1 ч. 50 м.
    Вид битрейта : Постоянный
    Битрейт : 192 Кбит/сек
    Каналы : 2 канала
    Расположение каналов : Front: L R
    Частота : 48, 0 КГц
    Битовая глубина : 16 бит
    Метод сжатия : С потерями
    Задержка видео : 300 мс.
    Размер потока : 152 Мбайт (7%)
    Выравнивание : Разделение по промежуткам
    Продолжительность промежутка : 42 мс. (1, 00 видеокадр)
    Время предзагрузки промежутка : 500 мс.
    Аудио #3
    Идентификатор : 3
    Формат : AC-3
    Формат/Информация : Audio Coding 3
    Расширение режима : CM (complete main)
    Параметр Endianness формата : Big
    Идентификатор кодека : 2000
    Продолжительность : 1 ч. 50 м.
    Вид битрейта : Постоянный
    Битрейт : 192 Кбит/сек
    Каналы : 2 канала
    Расположение каналов : Front: L R
    Частота : 48, 0 КГц
    Битовая глубина : 16 бит
    Метод сжатия : С потерями
    Задержка видео : 300 мс.
    Размер потока : 152 Мбайт (7%)
    Выравнивание : Разделение по промежуткам
    Продолжительность промежутка : 42 мс. (1, 00 видеокадр)
    Время предзагрузки промежутка : 500 мс.
    Аудио #4
    Идентификатор : 4
    Формат : AC-3
    Формат/Информация : Audio Coding 3
    Расширение режима : CM (complete main)
    Параметр Endianness формата : Big
    Идентификатор кодека : 2000
    Продолжительность : 1 ч. 50 м.
    Вид битрейта : Постоянный
    Битрейт : 192 Кбит/сек
    Каналы : 2 канала
    Расположение каналов : Front: L R
    Частота : 48, 0 КГц
    Битовая глубина : 16 бит
    Метод сжатия : С потерями
    Задержка видео : 300 мс.
    Размер потока : 152 Мбайт (7%)
    Выравнивание : Разделение по промежуткам
    Продолжительность промежутка : 42 мс. (1, 00 видеокадр)
    Время предзагрузки промежутка : 500 мс.


    Скриншоты для ознакомления




    Онлайн видео Отряд «Дельта» 2



    Отряд «Дельта» 2/Delta Force 2: The Colombian Connection (1990) HDRip
    загрузка...
    Рейтинг →
     (голосов: 1, оценка 5/5, голосовать можно 1 раз )

    Другие торренты по теме:

  • Отряд «Дельта» 2 / Delta Force 2: The Colombian Connection (1990) DVDRip скачать через торрент бесплатно
  • Отряд «Дельта» / The Delta Force (1986) BDRip скачать через торрент бесплатно
  • Delta Force Anthology / Антология Отряд Дельта (1998-2009) [Ru / En] Repack R.G. Catalyst скачать через торрент бесплатно
  • (Linux) Delta Force Anthology / Антология Отряд Дельта (1998-2009) [Ru] Repack R.G. Catalyst [x86-64] (cxarchive)
  • Отряд «Дельта» 2 / Delta Force 2: The Colombian Connection (1990) HDRip [H.264]
  • Delta Force: Task Force Dagger / Отряд Дельта: Операция "Кинжал" (2002) [En] (1.00.09) License GOG
  • Delta Force: Land Warrior / Отряд Дельта: Операция "Спецназ" (2000) [En] (1.00.42) License GOG


    • Комментарии (0):

      Информация

      Информация

        Посетители, находящиеся в группе Гости, не могут оставлять комментарии в данной новости.

        ↓ Меню




        ↓ Опрос

        Вы добавили сайт в закладки?
        Да
        Нет


        Top 10 за месяц (Фильмы)