.
Авторизация | Регистрация
Хочешь лучшие торренты? Добавь свой email!
Добавить

Торрент скачать бесплатно

» » Больница Никербокер / The Knick (2014) HDTVRip (сезон 1, серии 1-10 из 10) BaibaKo торрент скачать бесплатно




    Больница Никербокер / The Knick (2014) HDTVRip (сезон 1, серии 1-10 из 10) BaibaKo торрент скачать бесплатно

    Опубликовал: Админ | Дата: 19-04-2016, 04:00 | Просмотров: 60

    Производство: США
    Жанр: драма
    Режиссер: Стивен Содерберг

    Актеры
    Джереми Бобб, Лори Финкел, Стив Гарфанти, Ив Хьюсон, Андре Холлэнд, Эрик Джонсон, Клайв Оуэн, Джульет Райлэнс, Джозеф Скарпино, Кэра Сеймур и др.

    Описание

    Доктор Джон Такер работает хирургом в нью-йоркской больнице Никербокер. Здесь применяют передовые методы и стараются помочь всем пациентам — но до изобретения лазерного скальпеля и компьютерной томографии еще очень далеко, а в карету скорой помощи запрягают лошадей.

    Продолжительность: ~00: 55: 00 серия
    Качество видео: HDTVRip
    Перевод: Многоголосый закадровый, профессиональный -BaibaKo
    Автор перевода: vipere
    Озвучка: Татьяна Оболевич, Светлана Доманова, Олекса Мельник и Виталий Ткаченко
    Видео: XviD, 720x400 (16: 9), ~1500 kb/s
    Аудио Rus: MP3, 48, 0 kHz, 2 ch, 192 kb/s — многоголосый закадровый
    Аудио Eng: MP3, 48, 0 kHz, 2 ch, 192 kb/s — оригинал
    Общее
    Полное имя : D: The Knick - Больница Никербокер. Сезон 1. BaibaKoThe.Knick.s01e01.HDTVRip.XviD.Rus.Eng.BaibaKo.tv.avi
    Формат : AVI
    Формат/Информация : Audio Video Interleave
    Размер файла : 756 Мбайт
    Продолжительность : 55 м.
    Общий поток : 1912 Кбит/сек
    Программа кодирования : VirtualDubMod 1.5.10.2 (build 2540/release)
    Библиотека кодирования : VirtualDubMod build 2540/release
    Видео
    Идентификатор : 0
    Формат : MPEG-4 Visual
    Профиль формата : Advanced Simple@L5
    Параметр BVOP формата : 2
    Параметр QPel формата : Нет
    Параметр GMC формата : Без точки перехода
    Параметр матрицы формата : Default (H.263)
    Идентификатор кодека : XVID
    Идентификатор кодека/Подсказка : XviD
    Продолжительность : 55 м.
    Битрейт : 1514 Кбит/сек
    Ширина : 720 пикселей
    Высота : 400 пикселей
    Соотношение сторон : 16: 9
    Частота кадров : 23, 976 (24000/1001) кадра/сек
    Цветовое пространство : YUV
    Субдискретизация насыщенности : 4: 2: 0
    Битовая глубина : 8 бит
    Тип развёртки : Прогрессивная
    Метод сжатия : С потерями
    Бит/(Пиксели*Кадры) : 0.219
    Размер потока : 599 Мбайт (79%)
    Библиотека кодирования : XviD 1.2.1 (UTC 2008-12-04)
    Аудио #1
    Идентификатор : 1
    Формат : MPEG Audio
    Версия формата : Version 1
    Профиль формата : Layer 3
    Режим : Joint stereo
    Расширение режима : MS Stereo
    Идентификатор кодека : 55
    Идентификатор кодека/Подсказка : MP3
    Продолжительность : 55 м.
    Вид битрейта : Постоянный
    Битрейт : 192 Кбит/сек
    Каналы : 2 канала
    Частота : 48, 0 КГц
    Метод сжатия : С потерями
    Размер потока : 76, 0 Мбайт (10%)
    Выравнивание : Соединение по промежуткам
    Продолжительность промежутка : 42 мс. (1, 00 видеокадр)
    Время предзагрузки промежутка : 504 мс.
    Аудио #2
    Идентификатор : 2
    Формат : MPEG Audio
    Версия формата : Version 1
    Профиль формата : Layer 3
    Режим : Joint stereo
    Расширение режима : MS Stereo
    Идентификатор кодека : 55
    Идентификатор кодека/Подсказка : MP3
    Продолжительность : 55 м.
    Вид битрейта : Постоянный
    Битрейт : 192 Кбит/сек
    Каналы : 2 канала
    Частота : 48, 0 КГц
    Метод сжатия : С потерями
    Размер потока : 76, 0 Мбайт (10%)
    Выравнивание : Соединение по промежуткам
    Продолжительность промежутка : 42 мс. Самое интересное в это истории, что об этом Путин ничего не знал. (1, 00 видеокадр)
    Время предзагрузки промежутка : 504 мс.


    Скриншоты для ознакомления




    Онлайн видео Больница Никербокер



    Больница Никербокер/The Knick (2014) HDTVRip (сезон 1, серии 1-10 из 10) BaibaKo
    загрузка...
    Рейтинг →
     (голосов: 1, оценка 5/5, голосовать можно 1 раз )

    Другие торренты по теме:

  • Больница Никербокер / Больница Ник / The Knick (2014) HDTVRip [H.264 / 720p-LQ] (Сезон 1, Серия 1-6 из 10) NewStudio (обновляемая)
  • Больница Никербокер / Больница Ник / The Knick (2014) HDTVRip (Сезон 1, серия 01-06 из 10) (AlexFilm) (обновляемая)
  • Больница Никербокер / Больница Ник / The Knick (2014) HDTVRip (Сезон 1, серии 1-6 из 10) (NewStudio) (обновляемая)
  • Больница Никербокер / Больница Ник / The Knick (2015) HDTVRip (сезон 2, серии 1 из 10) NovaMedia (обновляемая) скачать через торрент бесплатно
  • Больница Никербокер / Больница Ник / The Knick (2015) HDTVRip (сезон 2, серии 1 из 10) NewStudio (обновляемая) скачать через торрент бесплатно
  • Больница Никербокер / Больница Ник / The Knick (2015) HDTV [H.264 / 720p-LQ] (сезон 2, серии 1 из 10) NewStudio (обновляемая) скачать через торрент бесплатно
  • Больница Никербокер / Больница Ник / The Knick (2015) HDTVRip [H.264 / 1080-LQ] (сезон 2, серии 1 из 10) NovaMedia (обновляемая) скачать через торрент бесплатно
  • Больница Никербокер / Больница Ник / The Knick (2014) HDTVRip (сезон 1, серии 1-10 из 10) NewStudio скачать через торрент бесплатно


    • Комментарии (0):

      Информация

      Информация

        Посетители, находящиеся в группе Гости, не могут оставлять комментарии в данной новости.

        ↓ Меню




        ↓ Опрос

        Вы добавили сайт в закладки?
        Да
        Нет


        Top 10 за месяц (Фильмы)