.
Авторизация | Регистрация
Хочешь лучшие торренты? Добавь свой email!
Добавить

Торрент скачать бесплатно

» » Путь / The Path (2016) WEB-DLRip (сезон 1, серии 1-4 из 10) LostFilm (обновляемая) торрент скачать бесплатно




    Путь / The Path (2016) WEB-DLRip (сезон 1, серии 1-4 из 10) LostFilm (обновляемая) торрент скачать бесплатно

    Опубликовал: Админ | Дата: 18-04-2016, 04:00 | Просмотров: 14

    Производство: США/Lucid Road Productions, True Jack Productions, Universal Television
    Жанр: драма
    Режиссер: Майкл Уивер, Роксанн Доусон, Майк Кэхилл

    Актеры
    Хью Дэнси, Аарон Пол, Мишель Монахэн, Эмма Гринвелл, Рокмонд Данбар, Кайл Аллен, Эми Форсайт, Сара Джонс, Джасмин Уолкер, Питер Фридман и др.

    Описание

    На севере штата Нью-Йорк появляется неизвестный и загадочный религиозный культ, в самом центре которого оказываются переживающий кризис веры Эдди и его преданная жена Сара, а их неофициальным лидером становится амбициозный Кэл.

    Дата мировой премьеры: 30 марта 2016
    Продолжительность: ~00: 56: 00 серия
    Качество видео: WEB-DLRip
    Перевод: Многоголосый закадровый, профессиональный -LostFilm
    Реклама: присутствуют заставка и логотип LostFilm.
    Видео: XviD, 720x400 (16: 9), ~1600 kb/s
    Аудио Rus: MPEG Layer 3, 48, 0 kHz, 2 ch, 192 kb/s — многоголосый закадровый
    Общее
    Полное имя : D: Путь (сезон любимого сериала 1) The Path (2016) WEB-DLRip - LostFilmThe.Path.S01E01.rus.LostFilm.TV.avi
    Формат : AVI
    Формат/Информация : Audio Video Interleave
    Размер файла : 726 Мбайт
    Продолжительность : 56 м.
    Режим общего битрейта : Переменный
    Общий поток : 1798 Кбит/сек
    Программа кодирования : Nandub v1.0rc2
    Библиотека кодирования : Nandub build 1853/release
    Видео
    Идентификатор : 0
    Формат : MPEG-4 Visual
    Профиль формата : Advanced Simple@L5
    Параметр BVOP формата : Нет
    Параметр QPel формата : Нет
    Параметр GMC формата : Без точки перехода
    Параметр матрицы формата : Default (H.263)
    Идентификатор кодека : XVID
    Идентификатор кодека/Подсказка : XviD
    Продолжительность : 56 м.
    Битрейт : 1598 Кбит/сек
    Ширина : 720 пикселей
    Высота : 400 пикселей
    Соотношение сторон : 16: 9
    Частота кадров : 23, 976 (23976/1000) кадра/сек
    Цветовое пространство : YUV
    Субдискретизация насыщенности : 4: 2: 0
    Битовая глубина : 8 бит
    Тип развёртки : Прогрессивная
    Метод сжатия : С потерями
    Бит/(Пиксели*Кадры) : 0.231
    Размер потока : 645 Мбайт (89%)
    Библиотека кодирования : XviD 1.2.1 (UTC 2008-12-04)
    Аудио
    Идентификатор : 1
    Формат : MPEG Audio
    Версия формата : Version 1
    Профиль формата : Layer 3
    Режим : Joint stereo
    Расширение режима : MS Stereo
    Идентификатор кодека : 55
    Идентификатор кодека/Подсказка : MP3
    Продолжительность : 56 м.
    Вид битрейта : Переменный
    Битрейт : 192 Кбит/сек
    Каналы : 2 канала
    Частота : 48, 0 КГц
    Метод сжатия : С потерями
    Размер потока : 75, 6 Мбайт (10%)
    Выравнивание : Соединение по промежуткам
    Продолжительность промежутка : 24 мс. (0, 58 видеокадр)
    Время предзагрузки промежутка : 483 мс.
    Библиотека кодирования : LAME3.97b
    Настройки программы : -m j -V 4 -q 3 -lowpass 18.6 --abr 192


    Скриншоты для ознакомления




    Онлайн видео Путь



    Путь/The Path (2016) WEB-DLRip (сезон 1, серии 1-4 из 10) LostFilm (обновляемая)
    загрузка...
    Рейтинг →
     (голосов: 1, оценка 4/5, голосовать можно 1 раз )

    Другие торренты по теме:

  • Путь / The Path (2016) WEBRip [H.264 / 720p-LQ] (сезон 1, серия 1 из 10) (BaibaKo) (обновляемая)
  • Путь / The Path (2016) WEBRip [H.264 / 720p-LQ] (сезон 1, серия 1-2 из 10) OMSKBIRD records (обновляемая)
  • Путь / The Path (2016) WEBRip (сезон 1, серия 1-2 из 10) OMSKBIRD records (обновляемая)
  • Путь / The Path (2016) WEB-DL [H.264] (сезон 1, серии 1-2 из 10) LostFilm [MP4|1280x720]
  • Путь / The Path (2017) WEBRip [H.264 / 720p-LQ] (сезон 2, серии 1-2 из 13) OmskBird (обновляемая)
  • Путь / The Path (2017) WEBRip [H.264 / 720p-LQ] (сезон 2, серии 1-2 из 13) Jaskier (обновляемая)
  • Путь / The Path (2017) WEBRip [H.264] (Сезон 2, серии 1-4 из 13) LostFilm [MP4|1280x720]


    • Комментарии (0):

      Информация

      Информация

        Посетители, находящиеся в группе Гости, не могут оставлять комментарии в данной новости.

        ↓ Меню




        ↓ Опрос

        Вы добавили сайт в закладки?
        Да
        Нет


        Top 10 за месяц (Фильмы)