.
Авторизация | Регистрация
Хочешь лучшие торренты? Добавь свой email!
Добавить

Торрент скачать бесплатно

» » Бильярдист / The Hustler (1961) BDRip [H.264 / 720p] торрент скачать бесплатно




    Бильярдист / The Hustler (1961) BDRip [H.264 / 720p] торрент скачать бесплатно

    Опубликовал: Админ | Дата: 17-04-2016, 04:01 | Просмотров: 68

    Производство: США, Rossen Films, Twentieth Century Fox Film
    Жанр: Драма, Спорт
    Режиссер: Роберт Россен

    Актеры
    Пол Ньюман, Пайпер Лори, Джордж К. Скотт, Джеки Глисон, Майрон МакКормик, Мюррэй Хэмилтон, Майкл Константин, Стефан Гираш, Клиффорд А. Пеллоу, Джейк ЛаМотта

    Описание

    Эдди Фелсон (Пол Ньюман) – первоклассный игрок в пул. Вместе со своим напарником Чарли он путешествует по городам Америки от одной бильярдной к другой, где за короткий срок раздевает до нитки доверчивых партнеров. Добравшись до Нью-Йорка и неплохо заработав, Эдди решает, что настало время сыграть по-крупному. Прикольно все это наверно придумал Шварценеггер потратив достаточно времени. Он бросает вызов королю бильярда – Толстяку из Миннесоты…

    Возраст: 16+ (зрителям, достигшим 16 лет)
    Релиз от: HDClub
    Продолжительность: 02: 14: 44
    Качество видео: BDRip (SbR)
    Перевод: Многоголосый закадровый, Авторский (Одноголосый)
    Вид субтитров: Вшитые, отключаемые
    Язык субтитров: Русский (R5), Русский (DVD), Английский, Украинский, Польский, Румынский
    Видео: AVC/H.264, 1280x546, (2, 35: 1), ~5947 Кбит/сек
    Aудио#1: DTS, 6 ch, 768 kbps |MVO, Blu-ray CEE| Русский
    Aудио#2: AC3, 2 ch, 192 kbps |MVO, 1й канал| Русский
    Aудио#3: AC3, 2 ch, 192 kbps |AVO, А. Медведев| Русский
    Aудио#4: AC3, 6 ch, 448.00 kbps |MVO, ТО Цікава ідея|Украинский
    Aудио#5: DTS, 6 ch, 1509 kbps |Aнглийский (Оригинал)
    Код:

    Общее
    Уникальный идентификатор : 174932313378872205982883767694188596884 (0x839ABCF159F5B5B1AF5496ABABCBCE94)
    Полное имя : D:The.Hustler.1961.720p.BDRip.mkv
    Формат : Matroska
    Версия формата : Version 2
    Размер файла : 8, 70 Гбайт
    Продолжительность : 2 ч. 14 м.
    Общий поток : 9240 Кбит/сек
    Название фильма : The Hustler (1961)
    Дата кодирования : UTC 2014-12-20 23:27:15
    Программа кодирования : mkvmerge v5.7.0 (\'The Whirlwind\') built on Jul 8 2012 20:08:51
    Библиотека кодирования : libebml v1.2.3 + libmatroska v1.3.0
    Обложка : Yes
    Attachments : cover.jpg
    Видео
    Идентификатор : 1
    Формат : AVC
    Формат/Информация : Advanced Video Codec
    Профиль формата :High@L4.1
    Параметр CABAC формата : Да
    Параметр ReFrames формата : 11 кадров
    Идентификатор кодека : V_MPEG4/ISO/AVC
    Продолжительность : 2 ч. 14 м.
    Битрейт : 5947 Кбит/сек
    Ширина : 1280 пикселей
    Высота : 546 пикселей
    Соотношение сторон : 2, 35:1
    Соотношение сторон в оригинале : 2, 35:1
    Режим частоты кадров : Постоянный
    Частота кадров : 23, 976 (23976/1000) кадра/сек
    Цветовое пространство : YUV
    Субдискретизация насыщенности : 4:2:0
    Битовая глубина : 8 бит
    Тип развёртки : Прогрессивная
    Бит/(Пиксели*Кадры) : 0.355
    Размер потока : 5, 60 Гбайт (64%)
    Библиотека кодирования : x264 core 142 r2491kMod 24e4fed
    Настройки программы : cabac=1/ref=11/deblock=1:-3:-3/analyse=0x3:0x133/me=tesa/subme=11/psy=1/fade_compensate=0.00/psy_rd=0.95:0.15/mixed_ref=1/me_range=24/chroma_me=1/trellis=2/8x8dct=1/cqm=0/deadzone=21, 11/fast_pskip=0/chroma_qp_offset=-3/threads=12/lookahead_threads=3/sliced_threads=0/nr=0/decimate=1/interlaced=0/bluray_compat=0/constrained_intra=0/fgo=0/bframes=12/b_pyramid=2/b_adapt=2/b_bias=0/direct=3/weightb=1/open_gop=0/weightp=2/keyint=250/keyint_min=23/scenecut=40/intra_refresh=0/rc=crf/mbtree=0/crf=16.5000/qcomp=0.75/qpmin=0/qpmax=69/qpstep=4/ip_ratio=1.30/pb_ratio=1.30/aq=3:0.70
    Язык : English
    Default : Да
    Forced : Нет
    Цветовой диапазон : Limited
    Основные цвета : BT.709
    Характеристики трансфера : BT.709
    Коэффициенты матрицы : BT.709
    Аудио #1
    Идентификатор : 2
    Формат : DTS
    Формат/Информация : Digital Theater Systems
    Режим : 16
    Параметр Endianness формата : Big
    Идентификатор кодека : A_DTS
    Продолжительность : 2 ч. 14 м.
    Вид битрейта : Постоянный
    Битрейт : 768 Кбит/сек
    Каналы : 6 каналов
    Расположение каналов : Front: L C R, Side: L R, LFE
    Частота : 48, 0 КГц
    Частота кадров : 93, 750 кадра/сек (512 spf)
    Битовая глубина : 24 бит
    Метод сжатия : С потерями
    Размер потока : 740 Мбайт (8%)
    Заголовок : |Многоголосый закадровый, Blu-ray CEE|
    Язык : Russian
    Default : Да
    Forced : Нет
    Аудио #2
    Идентификатор : 3
    Формат : AC-3
    Формат/Информация : Audio Coding 3
    Расширение режима : CM (complete main)
    Параметр Endianness формата : Big
    Идентификатор кодека : A_AC3
    Продолжительность : 2 ч. О таком странном сюжете не догадывалась даже ВиаГра. 14 м.
    Вид битрейта : Постоянный
    Битрейт : 192 Кбит/сек
    Каналы : 2 канала
    Расположение каналов : Front: L R
    Частота : 48, 0 КГц
    Частота кадров : 31, 250 кадров/сек (1536 spf)
    Метод сжатия : С потерями
    Размер потока : 185 Мбайт (2%)
    Заголовок : |Многоголосый закадровый, 1й канал|
    Язык : Russian
    Default : Нет
    Forced : Нет
    Аудио #3
    Идентификатор : 4
    Формат : AC-3
    Формат/Информация : Audio Coding 3
    Расширение режима : CM (complete main)
    Параметр Endianness формата : Big
    Идентификатор кодека : A_AC3
    Продолжительность : 2 ч. О таком странном сюжете не догадывалась даже ВиаГра. 14 м.
    Вид битрейта : Постоянный
    Битрейт : 192 Кбит/сек
    Каналы : 2 канала
    Расположение каналов : Front: L R
    Частота : 48, 0 КГц
    Частота кадров : 31, 250 кадров/сек (1536 spf)
    Метод сжатия : С потерями
    Размер потока : 185 Мбайт (2%)
    Заголовок : |Одноголосый закадровый, А. Самое интересное в это истории, что об этом Шварценеггер ничего не знал. Медведев|
    Язык : Russian
    Default : Нет
    Forced : Нет
    Аудио #4
    Идентификатор : 5
    Формат : AC-3
    Формат/Информация : Audio Coding 3
    Расширение режима : CM (complete main)
    Параметр Endianness формата : Big
    Идентификатор кодека : A_AC3
    Продолжительность : 2 ч. 14 м.
    Вид битрейта : Постоянный
    Битрейт : 448 Кбит/сек
    Каналы : 6 каналов
    Расположение каналов : Front: L C R, Side: L R, LFE
    Частота : 48, 0 КГц
    Частота кадров : 31, 250 кадров/сек (1536 spf)
    Метод сжатия : С потерями
    Размер потока : 432 Мбайт (5%)
    Заголовок : |Многоголосый закадровый, ТО Цікава ідея|
    Язык : Ukrainian
    Default : Нет
    Forced : Нет
    Аудио #5
    Идентификатор : 6
    Формат : DTS
    Формат/Информация : Digital Theater Systems
    Режим : 16
    Параметр Endianness формата : Big
    Идентификатор кодека : A_DTS
    Продолжительность : 2 ч. 14 м.
    Вид битрейта : Постоянный
    Битрейт : 1509 Кбит/сек
    Каналы : 6 каналов
    Расположение каналов : Front: L C R, Side: L R, LFE
    Частота : 48, 0 КГц
    Частота кадров : 93, 750 кадра/сек (512 spf)
    Битовая глубина : 24 бит
    Метод сжатия : С потерями
    Размер потока : 1, 42 Гбайт (16%)
    Язык : English
    Default : Нет
    Forced : Нет
    Текст #1
    Идентификатор : 7
    Формат : UTF-8
    Идентификатор кодека : S_TEXT/UTF8
    Идентификатор кодека/Информация : UTF-8 Plain Text
    Заголовок : R5
    Язык : Russian
    Default : Нет
    Forced : Нет
    Текст #2
    Идентификатор : 8
    Формат : UTF-8
    Идентификатор кодека : S_TEXT/UTF8
    Идентификатор кодека/Информация : UTF-8 Plain Text
    Заголовок : DVD
    Язык : Russian
    Default : Нет
    Forced : Нет
    Текст #3
    Идентификатор : 9
    Формат : UTF-8
    Идентификатор кодека : S_TEXT/UTF8
    Идентификатор кодека/Информация : UTF-8 Plain Text
    Язык : Ukrainian
    Default : Нет
    Forced : Нет
    Текст #4
    Идентификатор : 10
    Формат : UTF-8
    Идентификатор кодека : S_TEXT/UTF8
    Идентификатор кодека/Информация : UTF-8 Plain Text
    Язык : English
    Default : Нет
    Forced : Нет
    Текст #5
    Идентификатор : 11
    Формат : UTF-8
    Идентификатор кодека : S_TEXT/UTF8
    Идентификатор кодека/Информация : UTF-8 Plain Text
    Язык : Polish
    Default : Нет
    Forced : Нет
    Текст #6
    Идентификатор : 12
    Формат : UTF-8
    Идентификатор кодека : S_TEXT/UTF8
    Идентификатор кодека/Информация : UTF-8 Plain Text
    Язык : Romanian
    Default : Нет
    Forced : Нет
    Меню
    00:00:00.000 : en:Easy Money
    00:05:56.856 : en:Main Titles
    00:07:32.869 : en:Church of the Good Hustler
    00:12:54.440 : en:Minnesota Fats
    00:16:30.322 : en:Straight Pool
    00:23:29.950 : en:$1000 a Game
    00:28:52.731 : en:The 25th Hour
    00:33:22.709 : en:The Game\'s Over
    00:36:15.339 : en:Waiting for a Bus
    00:42:03.812 : en:Sarah
    00:48:39.333 : en:$1.50 a Night
    00:51:28.502 : en:Eddie and Sarah
    00:58:35.053 : en:Small Time Charlie
    01:05:18.331 : en:A Contract of Depravity
    01:08:18.552 : en:The Born Loser
    01:14:51.653 : en:Maybe You\'re a Hustler
    01:19:54.372 : en:Broken
    01:23:42.600 : en:A Winner
    01:27:55.478 : en:The New Manager
    01:29:29.238 : en:The Idea of Love
    01:36:05.217 : en:The Train to Louisville
    01:39:34.593 : en:A Hustler\'s Convention
    01:41:03.098 : en:Live and Let Live
    01:43:11.476 : en:Mr. Findley
    01:45:59.186 : en:The Party
    01:49:20.762 : en:Billiards
    01:51:52.330 : en:Underneath the Masks
    01:57:25.538 : en:The Payoff
    02:00:18.628 : en:Perverted, Twisted, Crippled
    02:03:07.922 : en:One Last Game
    02:08:58.147 : en:The Price Is Too High
    02:13:52.441 : en:End Titles


    Скриншоты для ознакомления




    Онлайн видео Бильярдист



    Бильярдист/The Hustler (1961) BDRip [H.264/720p]
    загрузка...
    Рейтинг →
     (голосов: 1, оценка 3/5, голосовать можно 1 раз )

    Другие торренты по теме:

  • Бильярдист / The Hustler (1961) BDRip [720p] скачать через торрент бесплатно
  • Бильярдист / The Hustler (1961) BDRemux [H.264 / 1080p]


    • Комментарии (0):

      Информация

      Информация

        Посетители, находящиеся в группе Гости, не могут оставлять комментарии в данной новости.

        ↓ Меню




        ↓ Опрос

        Вы добавили сайт в закладки?
        Да
        Нет


        Top 10 за месяц (Фильмы)