.
Авторизация | Регистрация
Хочешь лучшие торренты? Добавь свой email!
Добавить

Торрент скачать бесплатно

» » Девушка по вызову / The Girlfriend Experience (2016) WEB-DLRip (сезон 1, серии 1-4 из 13) NewStudio (обновляемая) торрент скачать бесплатно




    Девушка по вызову / The Girlfriend Experience (2016) WEB-DLRip (сезон 1, серии 1-4 из 13) NewStudio (обновляемая) торрент скачать бесплатно

    Опубликовал: Админ | Дата: 14-04-2016, 04:00 | Просмотров: 24

    Производство: США/Transactional Pictures
    Жанр: драма
    Режиссер: Лодж Х. Керриган, Эми Саймец

    Актеры
    Райли Кио, Пол Спаркс, Брайони Гласско, Мэри Линн Райскаб, Сугит Варухесе, Майкл Терриоль, Сабрин Рок, Кейт Хьюлетт, Дженни Рэйвен, Александра Кастилло и др.

    Описание

    Студентка юридического факультета Кристин погружается в новый для нее мир эскорта исключительно из прагматических соображений. Богатый выбор, сказал кто то из толпы, к чему не понятно. Но она оказывается не готова к трудностям, которые выпадают на долю тех, кто ведет двойную жизнь.

    Дата мировой премьеры: 10 апреля 2016
    Дата премьеры в РФ: 11 апреля 2016
    Продолжительность: ~00: 30: 00 серия
    Качество видео: WEB-DLRip
    Перевод: Многоголосый закадровый, профессиональный -NewStudio
    Автор перевода: Ирина Гвозденко
    Внимание! Присутствует ненормативная лексика.
    Видео: XviD, 720х400 (16: 9), ~1300 kb/s
    Аудио Rus: MPEG Layer 3, 48, 0 kHz, 2 ch, 128 kb/s - многоголосый закадровый
    Аудио Eng: MPEG Layer 3, 48, 0 kHz, 2 ch, 128 kb/s - оригинал
    Общее
    Полное имя : D: Девушка по вызову (сезон любимого сериала 1) The Girlfriend Experience (2016) WEBDLRip - NewStudioThe.Girlfriend.Experience.S01E01.WEBDLRip.Rus.Eng.DV.NewStudio.avi
    Формат : AVI
    Формат/Информация : Audio Video Interleave
    Размер файла : 334 Мбайт
    Продолжительность : 29 м.
    Общий поток : 1560 Кбит/сек
    Программа кодирования : VirtualDubModRus 1.5.10.2 (build 2542/release)
    Библиотека кодирования : VirtualDubMod build 2542/release
    Видео
    Идентификатор : 0
    Формат : MPEG-4 Visual
    Профиль формата : Advanced Simple@L5
    Параметр BVOP формата : 2
    Параметр QPel формата : Нет
    Параметр GMC формата : Без точки перехода
    Параметр матрицы формата : Default (MPEG)
    Идентификатор кодека : XVID
    Идентификатор кодека/Подсказка : XviD
    Продолжительность : 29 м.
    Битрейт : 1290 Кбит/сек
    Ширина : 720 пикселей
    Высота : 400 пикселей
    Соотношение сторон : 16: 9
    Частота кадров : 23, 976 (23976/1000) кадра/сек
    Цветовое пространство : YUV
    Субдискретизация насыщенности : 4: 2: 0
    Битовая глубина : 8 бит
    Тип развёртки : Прогрессивная
    Метод сжатия : С потерями
    Бит/(Пиксели*Кадры) : 0.187
    Размер потока : 277 Мбайт (83%)
    Библиотека кодирования : XviD 73
    Аудио #1
    Идентификатор : 1
    Формат : MPEG Audio
    Версия формата : Version 1
    Профиль формата : Layer 3
    Режим : Joint stereo
    Расширение режима : MS Stereo
    Идентификатор кодека : 55
    Идентификатор кодека/Подсказка : MP3
    Продолжительность : 29 м.
    Вид битрейта : Постоянный
    Битрейт : 128 Кбит/сек
    Каналы : 2 канала
    Частота : 48, 0 КГц
    Метод сжатия : С потерями
    Размер потока : 27, 4 Мбайт (8%)
    Выравнивание : Соединение по промежуткам
    Продолжительность промежутка : 42 мс. (1, 00 видеокадр)
    Время предзагрузки промежутка : 504 мс.
    Аудио #2
    Идентификатор : 2
    Формат : MPEG Audio
    Версия формата : Version 1
    Профиль формата : Layer 3
    Режим : Joint stereo
    Расширение режима : MS Stereo
    Идентификатор кодека : 55
    Идентификатор кодека/Подсказка : MP3
    Продолжительность : 29 м.
    Вид битрейта : Постоянный
    Битрейт : 128 Кбит/сек
    Каналы : 2 канала
    Частота : 48, 0 КГц
    Метод сжатия : С потерями
    Размер потока : 27, 4 Мбайт (8%)
    Выравнивание : Соединение по промежуткам
    Продолжительность промежутка : 42 мс. (1, 00 видеокадр)
    Время предзагрузки промежутка : 504 мс.
    Библиотека кодирования : LAME3.99.5


    Скриншоты для ознакомления




    Онлайн видео Девушка по вызову



    Девушка по вызову/The Girlfriend Experience (2016) WEB-DLRip (сезон 1, серии 1-4 из 13) NewStudio (обновляемая)
    загрузка...
    Рейтинг →
     (голосов: 1, оценка 4/5, голосовать можно 1 раз )

    Другие торренты по теме:

  • Девушка по вызову / The Girlfriend Experience (2016) WEBRip [H.264 / 720p-LQ] (сезон 1, серии 1-2 из 13) BaibaKo (обновляемая)
  • Девушка по вызову / The Girlfriend Experience (2016) WEB-DL [H.264 / 720p-LQ] (сезон 1, серии 1-4 из 13) NewStudio (обновляемая)
  • Принцесса и девушка по вызову / The Princess and the Call Girl (1984) DVDRip [H.264] [АVO]


    • Комментарии (0):

      Информация

      Информация

        Посетители, находящиеся в группе Гости, не могут оставлять комментарии в данной новости.

        ↓ Меню




        ↓ Опрос

        Вы добавили сайт в закладки?
        Да
        Нет


        Top 10 за месяц (Фильмы)