.
Авторизация | Регистрация
Хочешь лучшие торренты? Добавь свой email!
Добавить

Торрент скачать бесплатно

» » Следователь Тихонов (2016) HDTV [H.264 / 1080i] (серии 1-3 из 20) (обновляемая) торрент скачать бесплатно




    Следователь Тихонов (2016) HDTV [H.264 / 1080i] (серии 1-3 из 20) (обновляемая) торрент скачать бесплатно

    Опубликовал: Админ | Дата: 13-04-2016, 04:00 | Просмотров: 41

    Производство: Россия/Нон-Стоп Продакшн
    Жанр: боевик, криминал
    Режиссер: Алёна Семёнова

    Актеры
    Михаил Ефремов, Светлана Иванова, Сергей Шакуров, Виктория Толстоганова, Юрий Ицков, Аглая Тарасова, Фёдор Бондарчук, Максим Матвеев, Алексей Гуськов, Сергей Гармаш, Мария Миронова, Игорь Скляр, Евгений Харланов, Илья Носков, Михаил Сафронов, Артур Ваха, Сергей Перегудов, Светлана Немоляева, Анатолий Лобоцкий, Юлия Ауг, Мария Луговая, Александра Мареева, Игорь Черневич, Александр Пашутин, Юлия Яковлева, Александр Тютин, Наталья Ткаченко, Алиса Шитикова, Оксана Базилевич, Иван Забашта, Анна Чернович, Маргарита Адаева, Роман Грибков, Андрей Гульнев, Алексей Ведерников

    Описание

    Станислав Тихонов следователь по особо важным делам московского уголовного розыска. Вместе со своей оперативной группой Тихонов расследует самые громкие преступления, совершенные в 1970-х годах. Среди них похищение бесценной скрипки Страдивари, исчезновение метапроптизола — уникального лекарства против страха, вывоз контрабандой ордена Святого Александра Невского.
    Сложные, запутанные расследования, дерзкие решения, опасные погони — следователь Тихонов не зря считается лучшим специалистом в раскрытии самых запутанных дел. Но и его личная жизнь полна самых неожиданных событий — в него влюбляются самые красивые женщины столицы, а самому Тихонову для счастья нужна только одна-единственная, но кто она — он и сам определиться не может.

    Дата премьеры в России: 11 апреля 2016
    Продолжительность: ~00: 45: 00 серия
    Качество видео: HDTV
    Видео: AVC/H.264, 1920x1080 (16: 9), ~7579 Kbps
    Аудио: AC3, 2 ch, 192 Kbps, CBR
    Код:
    Общее
    Уникальный идентификатор : 208246703888044350981608460629980632695 (0x9CAADB356A257F0595697DAD1AC25677)
    Полное имя : F:DOWNLOADSСледователь Тихонов (2016) HDTV 1080Следователь Тихонов - 01 серия.mkv
    Формат : Matroska
    Версия формата : Version 2
    Размер файла : 2, 46 Гбайт
    Продолжительность : 44 м.
    Общий поток : 7928 Кбит/сек
    Дата кодирования : UTC 2016-04-12 17:41:55
    Программа кодирования : mkvmerge v7.8.0 (\'River Man\') 32bit built on Apr 3 2015 12:11:22
    Библиотека кодирования : libebml v1.3.1 + libmatroska v1.4.2
    Видео
    Идентификатор : 1
    Формат : AVC
    Формат/Информация : Advanced Video Codec
    Профиль формата : High@L4
    Параметр CABAC формата : Да
    Параметр ReFrames формата : 4 кадра
    Идентификатор кодека : V_MPEG4/ISO/AVC
    Продолжительность : 44 м.
    Битрейт : 7579 Кбит/сек
    Ширина : 1920 пикселей
    Высота : 1080 пикселей
    Соотношение сторон : 16:9
    Режим частоты кадров : Постоянный
    Частота кадров : 25, 000 кадров/сек
    Цветовое пространство : YUV
    Субдискретизация насыщенности : 4:2:0
    Битовая глубина : 8 бит
    Тип развёртки : MBAFF
    Метод сохранения типа развёртки : Чередующиеся поля
    Порядок развёртки : Верхнее поле первое
    Бит/(Пиксели*Кадры) : 0.146
    Размер потока : 2, 35 Гбайт (96%)
    Default : Да
    Forced : Нет
    Аудио
    Идентификатор : 2
    Формат : AC-3
    Формат/Информация : Audio Coding 3
    Расширение режима : CM (complete main)
    Параметр Endianness формата : Big
    Идентификатор кодека : A_AC3
    Продолжительность : 44 м.
    Вид битрейта : Постоянный
    Битрейт : 192 Кбит/сек
    Каналы : 2 канала
    Расположение каналов : Front: L R
    Частота : 48, 0 КГц
    Частота кадров : 31, 250 кадров/сек (1536 spf)
    Метод сжатия : С потерями
    Размер потока : 61, 0 Мбайт (2%)
    Default : Да
    Forced : Нет


    Скриншоты для ознакомления




    Онлайн видео Следователь Тихонов (2016) HDTV [H.264



    Следователь Тихонов (2016) HDTV [H.264/1080i] (серии 1-3 из 20) (обновляемая)
    загрузка...
    Рейтинг →
     (голосов: 1, оценка 5/5, голосовать можно 1 раз )

    Другие торренты по теме:

  • Следователь Тихонов (2015) SATRip [H.264] (1 серия из 20) (Обновляемая)
  • Следователь Тихонов (2016) HDTVRip (серии 1-3 из 20) (обновляемая)
  • Следователь Тихонов (2016) HDTVRip [H.264 / 720p-LQ] (серии 1-3 из 20) (обновляемая)
  • Следователь Тихонов (2016) SATRip (серия 1-6 из 20) Обновляемая
  • Следователь Тихонов (2016) WEB-DLRip (серии 1-8 из 20) (обновляемая)
  • Следователь Тихонов (2016) WEB-DLRip [H.264 / 720p-LQ] (серии 1-8 из 20) (обновляемая)
  • Следователь Тихонов (2016) WEBRip (серии 1-20 из 20)
  • Следователь Тихонов (2016) HDTVRip [H.264] (сезон 1, серии 1-20 из 20) [MP4|640x480@852x480] [AD]


    • Комментарии (0):

      Информация

      Информация

        Посетители, находящиеся в группе Гости, не могут оставлять комментарии в данной новости.

        ↓ Меню




        ↓ Опрос

        Вы добавили сайт в закладки?
        Да
        Нет


        Top 10 за месяц (Фильмы)