.
Авторизация | Регистрация
Хочешь лучшие торренты? Добавь свой email!
Добавить

Торрент скачать бесплатно

» » Атака легкой кавалерии / The Charge of the Light Brigade (1968) DVD9 торрент скачать бесплатно




    Атака легкой кавалерии / The Charge of the Light Brigade (1968) DVD9 торрент скачать бесплатно

    Опубликовал: Админ | Дата: 11-04-2016, 04:00 | Просмотров: 36

    Производство: Великобритания/Woodfall Film Productions
    Жанр: Драма, военный, история
    Режиссер: Тони Ричардсон

    Актеры
    Тревор Ховард, Ванесса Редгрейв, Джон Гилгуд, Гарри Эндрюс, Джилл Беннетт, Дэвид Хеммингс, Бен Арис, Мики Бэйкер, Питер Боулз, Лео Бритт

    Описание

    Героическая, но катастрофическая по последствиям атака британской кавалерии под командованием лорда Кардигана на позиции Русской армии во время Балаклавского сражения 25 октября 1854 года в ходе Крымской войны...

    Возраст: 0+ (для любой зрительской аудитории)
    Рейтинг MPAA: PG-13 (детям до 13 лет просмотр нежелателен)
    Продолжительность: 02: 05: 04
    Качество видео: DVD9
    Перевод: Многоголосый закадровый (5-й канал СПб)
    Субтитры: Нет
    Дополнительные материалы: Трейлер к фильму
    Видео: PAL 16: 9 (720x576@1024x576) VBR, ~6372 Кбит/сек, 25, 00 кадр/сек
    Аудио#1: Русский (Dolby AC3, 2/0ch, 192Kbps)
    Аудио#2: Английский (Dolby AC3, 2/0ch, 224Kbps)
    Title:
    Size: 5.86 Gb ( 6 140 074 KBytes ) - DVD-9
    Enabled regions: 1, 2, 3, 4, 5, 6, 7, 8
    VTS_01 :
    Play Length: 02: 05: 04+00: 03: 10
    Video: PAL 16: 9 (720x576) VBR, Auto Letterboxed
    Audio:
    Russian (Dolby AC3, 2 ch)
    English (Dolby AC3, 2 ch)
    Код:

    Общее
    Полное имя : F:[NNMClub.to]_The.Charge.of.the.Light.Brigade.1968.DVD9_maroder1VIDEO_TSVTS_01_1.VOB
    Формат : MPEG-PS
    Размер файла : 1024 Мбайт
    Продолжительность : 20 м.
    Режим общего битрейта : Переменный
    Общий поток : 6926 Кбит/сек
    Видео
    Идентификатор : 224 (0xE0)
    Формат : MPEG Video
    Версия формата : Version 2
    Профиль формата : Main@Main
    Параметр BVOP формата : Да
    Параметр матрицы формата : Выборочная
    Параметр GOP формата : Variable
    Продолжительность : 20 м.
    Вид битрейта : Переменный
    Битрейт : 6372 Кбит/сек
    Максимальный битрейт : 9800 Кбит/сек
    Ширина : 720 пикселей
    Высота : 576 пикселей
    Соотношение сторон : 16:9
    Частота кадров : 25, 000 кадров/сек
    Стандарт вещания : PAL
    Цветовое пространство : YUV
    Субдискретизация насыщенности : 4:2:0
    Битовая глубина : 8 бит
    Тип развёртки : Чересстрочная
    Порядок развёртки : Верхнее поле первое
    Метод сжатия : С потерями
    Бит/(Пиксели*Кадры) : 0.615
    Размер потока : 942 Мбайт (92%)
    Аудио #1
    Идентификатор : 189 (0xBD)-128 (0x80)
    Формат : AC-3
    Формат/Информация : Audio Coding 3
    Расширение режима : CM (complete main)
    Параметр Endianness формата : Big
    Режим смешивания : DVD-Video
    Продолжительность : 20 м.
    Вид битрейта : Постоянный
    Битрейт : 192 Кбит/сек
    Каналы : 2 канала
    Расположение каналов : Front: L R
    Частота : 48, 0 КГц
    Битовая глубина : 16 бит
    Метод сжатия : С потерями
    Размер потока : 28, 4 Мбайт (3%)
    Аудио #2
    Идентификатор : 189 (0xBD)-129 (0x81)
    Формат : AC-3
    Формат/Информация : Audio Coding 3
    Расширение режима : CM (complete main)
    Параметр Endianness формата : Big
    Режим смешивания : DVD-Video
    Продолжительность : 20 м.
    Вид битрейта : Постоянный
    Битрейт : 224 Кбит/сек
    Каналы : 2 канала
    Расположение каналов : Front: L R
    Частота : 48, 0 КГц
    Битовая глубина : 16 бит
    Метод сжатия : С потерями
    Размер потока : 33, 1 Мбайт (3%)
    Меню


    Скриншоты для ознакомления




    Онлайн видео Атака легкой кавалерии



    Атака легкой кавалерии/The Charge of the Light Brigade (1968) DVD9
    загрузка...
    Рейтинг →
     (голосов: 1, оценка 5/5, голосовать можно 1 раз )

    Другие торренты по теме:

  • Shingeki no Kyojin / Attack on Titan / Атака титанов [2013, TV, 25] BDRip 720p Hi10p + Rus x 7
  • Атака пауков / Eight Legged Freaks (2002) HDTV [1080i] скачать через торрент бесплатно
  • Атака Титанов. Фильм первый: Жестокий мир / Shingeki no kyojin: Attack on Titan (2015) DVDScr [H.264 / 720p-LQ] скачать через торрент бесплатно
  • Атака Титанов. Фильм первый: Жестокий мир / Shingeki no kyojin: Attack on Titan (2015) DVDScr скачать через торрент бесплатно
  • Угроза из глубины 2 (Атака трёхголовой акулы) / 3 Headed Shark Attack (2015) HDTVRip [H.264 / 720p] [VO] скачать через торрент бесплатно
  • Атака титанов. Фильм первый: Жестокий мир / Shingeki no kyojin (2015) WEB-DL [H.264 / 1080p-LQ] скачать через торрент бесплатно
  • Атака титанов. Фильм первый: Жестокий мир / Shingeki no kyojin (2015) WEB-DL [H.264 / 720p-LQ] скачать через торрент бесплатно
  • Атака титанов. Фильм первый: Жестокий мир / Shingeki no kyojin (2015) WEB-DLRip [576p] iPad скачать через торрент бесплатно


    • Комментарии (0):

      Информация

      Информация

        Посетители, находящиеся в группе Гости, не могут оставлять комментарии в данной новости.

        ↓ Меню




        ↓ Опрос

        Вы добавили сайт в закладки?
        Да
        Нет


        Top 10 за месяц (Фильмы)