.
Авторизация | Регистрация
Хочешь лучшие торренты? Добавь свой email!
Добавить

Торрент скачать бесплатно

» » Чужестранка / Outlander (2016) WEBRip [H.264 / 720p-LQ] (сезон 2, серии 1 из 13) BaibaKo (обновляемая) торрент скачать бесплатно




    Чужестранка / Outlander (2016) WEBRip [H.264 / 720p-LQ] (сезон 2, серии 1 из 13) BaibaKo (обновляемая) торрент скачать бесплатно

    Опубликовал: Админ | Дата: 10-04-2016, 04:05 | Просмотров: 6

    Производство: США
    Жанр: фантастика, драма, мелодрама
    Режиссер: Анна Ферстер, Ричард Кларк, Брайан Келли

    Актеры
    Каитриона Бэлфи, Сэм Юэн, Дункан Лакруа, Гари Льюис, Грэм Мак Тавиш, Тобиаш Мензес, Стивен Уолтерс, Аннет Бэдленд, Родерик Джилкисон.

    Описание

    Клэр, работавшая медсестрой во время Второй мировой войны, случайно перемещается во времени и попадает в 1743 год. В этом мире, полном приключений, она знакомится с шотландским рыцарем Джейми. У героев завязывается страстный роман, несмотря на то, что сердце Клэр разрывается между двумя мужчинами — Джейми и ее мужем Фрэнком, который остался в другом времени.

    Продолжительность: ~ 00: 59: 00 серия
    Качество видео: WEBRip
    Перевод: Многоголосый закадровый, профессиональный -BaibaKo
    Автор перевода: Татьяна Saavick
    Озвучка: Ольга Мотрич, Лира Грим, Акмал Гурезов, Артемий Мирон и Алексей Кузнецов
    Реклама: видеоблок вырезан/присутствуют голосовые и текстовые вставки рекламы
    Видео: AVC/H.264, 1280x720 (16: 9), ~2844 Кбит/сек
    Аудио #1 Rus: AC3, 2 канала, 384 Кбит/сек - (многоголосый закадровый)
    Аудио #2 Eng: AC3, 2 канала, 384 Кбит/сек - (оригинал)
    Код:

    Полное имя : E:Outlander_s2_WEB-DL720p_BaibaKo_[NNMClub]Outlander.s02e01.HD720p.WEBRip.Rus.Eng.BaibaKo.tv.mkv
    Формат : Matroska
    Версия формата : Version 4/Version 2
    Размер файла : 1, 54 Гбайт
    Продолжительность : 59 м.
    Общий поток : 3685 Кбит/сек
    Дата кодирования : UTC 2016-04-09 20:13:20
    Программа кодирования : mkvmerge v6.8.0 (\'Theme for Great Cities\') 64bit built on Mar 2 2014 21:34:26
    Библиотека кодирования : libebml v1.3.0 + libmatroska v1.4.1
    DURATION : 00:59:54.250000000
    NUMBER_OF_FRAMES : 112320
    NUMBER_OF_BYTES : 172523520
    _STATISTICS_WRITING_APP : mkvmerge v8.9.0 (\'Father Daughter\') 64bit
    _STATISTICS_WRITING_DATE_UTC : 2016-04-08 18:05:36
    _STATISTICS_TAGS : BPS DURATION NUMBER_OF_FRAMES NUMBER_OF_BYTES
    Видео
    Идентификатор : 1
    Формат : AVC
    Формат/Информация : Advanced Video Codec
    Профиль формата :Main@L3.1
    Параметр CABAC формата : Да
    Параметр ReFrames формата : 1 кадр
    Идентификатор кодека : V_MPEG4/ISO/AVC
    Продолжительность : 59 м.
    Битрейт : 2844 Кбит/сек
    Ширина : 1280 пикселей
    Высота : 720 пикселей
    Соотношение сторон : 16:9
    Режим частоты кадров : Постоянный
    Частота кадров : 23, 976 кадра/сек
    Цветовое пространство : YUV
    Субдискретизация насыщенности : 4:2:0
    Битовая глубина : 8 бит
    Тип развёртки : Прогрессивная
    Бит/(Пиксели*Кадры) : 0.129
    Размер потока : 1, 19 Гбайт (77%)
    Default : Нет
    Forced : Нет
    Аудио #1
    Идентификатор : 2
    Формат : AC-3
    Формат/Информация : Audio Coding 3
    Расширение режима : CM (complete main)
    Параметр Endianness формата : Big
    Идентификатор кодека : A_AC3
    Продолжительность : 59 м.
    Вид битрейта : Постоянный
    Битрейт : 384 Кбит/сек
    Каналы : 2 канала
    Расположение каналов : Front: L R
    Частота : 48, 0 КГц
    Битовая глубина : 16 бит
    Метод сжатия : С потерями
    Размер потока : 164 Мбайт (10%)
    Язык : Russian
    Default : Да
    Forced : Нет
    Аудио #2
    Идентификатор : 3
    Формат : AC-3
    Формат/Информация : Audio Coding 3
    Расширение режима : CM (complete main)
    Параметр Endianness формата : Big
    Идентификатор кодека : A_AC3
    Продолжительность : 59 м.
    Вид битрейта : Постоянный
    Битрейт : 384 Кбит/сек
    Каналы : 2 канала
    Расположение каналов : Front: L R
    Частота : 48, 0 КГц
    Битовая глубина : 16 бит
    Метод сжатия : С потерями
    Размер потока : 164 Мбайт (10%)
    Язык : English
    Default : Нет
    Forced : Нет


    Скриншоты для ознакомления




    Онлайн видео Чужестранка



    Чужестранка/Outlander (2016) WEBRip [H.264/720p-LQ] (сезон 2, серии 1 из 13) BaibaKo (обновляемая)
    загрузка...
    Рейтинг →
     (голосов: 1, оценка 3/5, голосовать можно 1 раз )

    Другие торренты по теме:

  • Чужестранка / Outlander (2014) WEB-DL [H.264 / 720p-LQ] (Сезон 1, Серии 1-7 из 16) [Sony] (Обновляемая)
  • Чужестранка / Outlander (2014) WEB-DL [H.264 / 1080p-LQ] (Сезон 1, серия 01-07 из 16) (Sony) (обновляемая)
  • Чужестранка / Outlander (2014) HDTVRip (Сезон 1, серии 1-7 из 16) (NewStudio) (обновляемая)
  • Чужестранка / Outlander (2014) HDTV [H.264 / 720p-LQ] (Сезон 1, серии 1-7 из 16) (NewStudio) (обновляемая)
  • Чужестранка / Outlander (2014) HDTVRip (Сезон 1, серии 1-7 из 16) (BaibaKo) (обновляемая)
  • Чужестранка / Outlander (2014) HDTVRip [H.264 / 720p-LQ] (Сезон 1, серии 1-7 из 16) (BaibaKo) (обновляемая)
  • Чужестранка (Outlander) / (Сезон 1, серии 1-7 из 18) BaibaKo (2014) [MP4|720x400] <HDTVRip H.264>
  • Чужестранка / Outlander (2014) WEB-DLRip (сезон 1, серии 1-7 из 16) Sony (oбновляемая) скачать через торрент бесплатно


    • Комментарии (0):

      Информация

      Информация

        Посетители, находящиеся в группе Гости, не могут оставлять комментарии в данной новости.

        ↓ Меню




        ↓ Опрос

        Вы добавили сайт в закладки?
        Да
        Нет


        Top 10 за месяц (Фильмы)