.
Авторизация | Регистрация
Хочешь лучшие торренты? Добавь свой email!
Добавить

Торрент скачать бесплатно

» » Красный барон / Von Richthofen and Brown (1971) DVD5 торрент скачать бесплатно




    Красный барон / Von Richthofen and Brown (1971) DVD5 торрент скачать бесплатно

    Опубликовал: Админ | Дата: 10-04-2016, 04:03 | Просмотров: 16

    Производство: США Metro-Goldwyn-Mayer
    Жанр: Драма, военный
    Режиссер: Роджер Корман

    Актеры
    Джон Филлип Ло, Дон Страуд, Барри Праймус, Корин Редгрейв, Карен Эриксон, Херд Хэтфилд, Стивен МакХэтти, Брайан Фоли, Роберт Ла Турне, Питер Мастерсон

    Описание

    Фильм повествует о легендарном летчике-асе Первой мировой войны — Манфреде фон Рихтгофене, известном также как Красный Барон, сбившем 80 самолетов противника...

    Возраст: 16+ (зрителям достигшим 16 лет)
    Рейтинг MPAA: PG-13 (детям до 13 лет просмотр нежелателен)
    Продолжительность: 01: 24: 58
    Качество видео: DVD5
    Перевод: Двухголосый закадровый (НТВ+)
    Субтитры: Английские, испанские (вшитые отключаемые)
    Дополнительные материалы: Нет
    Видео: MPEG-2, NTSC (16: 9), 720x480@853x480, VBR, ~5412 kbps, 23, 976 fps
    Аудио#1: AC3, 2 ch, 192 Kbps (Русский)
    Аудио#2: AC3, 2 ch, 192 Kbps (Английский)
    Аудио#3: AC3, 2 ch, 192 Kbps (Французский)
    Аудио#4: AC3, 2 ch, 192 Kbps (Испанский)
    Title:
    Size: 4.28 Gb ( 4 485 306 KBytes ) - DVD-5
    Enabled regions: 1, 2, 3, 4, 5, 6, 7, 8
    VTS_01 :
    Play Length: 01: 36: 22
    Video: NTSC 16: 9 (720x480) VBR, Auto Letterboxed
    Audio:
    Russian (Dolby AC3, 2 ch)
    English (Dolby AC3, 2 ch)
    Francais (Dolby AC3, 2 ch)
    Espanol (Dolby AC3, 2 ch)
    Subtitles:
    English
    Espanol
    VTS_02 :
    Play Length:
    Video: NTSC 16: 9 (720x480) VBR, Auto Letterboxed
    Audio:
    English (Dolby AC3, 6 ch)
    Код:

    Общее
    Полное имя : F:[NNMClub.to]_Von.Richthofen.and.Brown.1971.DVD5_maroder1VIDEO_TSVTS_01_1.VOB
    Формат : MPEG-PS
    Размер файла : 1024 Мбайт
    Продолжительность : 22 м.
    Режим общего битрейта : Переменный
    Общий поток : 6306 Кбит/сек
    Видео
    Идентификатор : 224 (0xE0)
    Формат : MPEG Video
    Версия формата : Version 2
    Профиль формата : Main@Main
    Параметр BVOP формата : Да
    Параметр матрицы формата : Выборочная
    Параметр GOP формата : Variable
    Продолжительность : 22 м.
    Вид битрейта : Переменный
    Битрейт : 5412 Кбит/сек
    Ширина : 720 пикселей
    Высота : 480 пикселей
    Соотношение сторон : 16:9
    Частота кадров : 23, 976 кадра/сек
    Стандарт вещания : Component
    Цветовое пространство : YUV
    Субдискретизация насыщенности : 4:2:0
    Битовая глубина : 8 бит
    Тип развёртки : Прогрессивная
    Порядок развёртки : 2:3 Pulldown
    Метод сжатия : С потерями
    Бит/(Пиксели*Кадры) : 0.653
    Размер потока : 879 Мбайт (86%)
    Основные цвета : BT.601 NTSC
    Характеристики трансфера : BT.601
    Коэффициенты матрицы : BT.601
    Аудио #1
    Идентификатор : 189 (0xBD)-128 (0x80)
    Формат : AC-3
    Формат/Информация : Audio Coding 3
    Расширение режима : CM (complete main)
    Параметр Endianness формата : Big
    Режим смешивания : DVD-Video
    Продолжительность : 22 м.
    Вид битрейта : Постоянный
    Битрейт : 192 Кбит/сек
    Каналы : 2 канала
    Расположение каналов : Front: L R
    Частота : 48, 0 КГц
    Битовая глубина : 16 бит
    Метод сжатия : С потерями
    Размер потока : 31, 2 Мбайт (3%)
    Аудио #2
    Идентификатор : 189 (0xBD)-129 (0x81)
    Формат : AC-3
    Формат/Информация : Audio Coding 3
    Расширение режима : CM (complete main)
    Параметр Endianness формата : Big
    Режим смешивания : DVD-Video
    Продолжительность : 22 м.
    Вид битрейта : Постоянный
    Битрейт : 192 Кбит/сек
    Каналы : 2 канала
    Расположение каналов : Front: L R
    Частота : 48, 0 КГц
    Битовая глубина : 16 бит
    Метод сжатия : С потерями
    Размер потока : 31, 2 Мбайт (3%)
    Аудио #3
    Идентификатор : 189 (0xBD)-130 (0x82)
    Формат : AC-3
    Формат/Информация : Audio Coding 3
    Расширение режима : CM (complete main)
    Параметр Endianness формата : Big
    Режим смешивания : DVD-Video
    Продолжительность : 22 м.
    Вид битрейта : Постоянный
    Битрейт : 192 Кбит/сек
    Каналы : 2 канала
    Расположение каналов : Front: L R
    Частота : 48, 0 КГц
    Битовая глубина : 16 бит
    Метод сжатия : С потерями
    Размер потока : 31, 2 Мбайт (3%)
    Аудио #4
    Идентификатор : 189 (0xBD)-131 (0x83)
    Формат : AC-3
    Формат/Информация : Audio Coding 3
    Расширение режима : CM (complete main)
    Параметр Endianness формата : Big
    Режим смешивания : DVD-Video
    Продолжительность : 22 м.
    Вид битрейта : Постоянный
    Битрейт : 192 Кбит/сек
    Каналы : 2 канала
    Расположение каналов : Front: L R
    Частота : 48, 0 КГц
    Битовая глубина : 16 бит
    Метод сжатия : С потерями
    Размер потока : 31, 2 Мбайт (3%)
    Меню


    Скриншоты для ознакомления




    Онлайн видео Красный барон



    Красный барон/Von Richthofen and Brown (1971) DVD5
    загрузка...
    Рейтинг →
     (голосов: 1, оценка 5/5, голосовать можно 1 раз )

    Другие торренты по теме:

  • «Красный Барон» Манфред фон Рихтгофен / Der Rote Baron - Manfred von Richthofen (2015) SATRip


    • Комментарии (0):

      Информация

      Информация

        Посетители, находящиеся в группе Гости, не могут оставлять комментарии в данной новости.

        ↓ Меню




        ↓ Опрос

        Вы добавили сайт в закладки?
        Да
        Нет


        Top 10 за месяц (Фильмы)