.
Авторизация | Регистрация
Хочешь лучшие торренты? Добавь свой email!
Добавить

Торрент скачать бесплатно

» » Да здравствует Цезарь! / Hail, Caesar! (2016) WEBRip [звук c TS] торрент скачать бесплатно




    Да здравствует Цезарь! / Hail, Caesar! (2016) WEBRip [звук c TS] торрент скачать бесплатно

    Опубликовал: Админ | Дата: 9-04-2016, 04:00 | Просмотров: 26

    Производство: Великобритания, США, Япония
    Жанр: Комедия, Детектив
    Режиссер: Итан Коэн, Джоэл Коэн
    Продюсер: Тим Беван, Итан Коэн, Джоэл Коэн

    Актеры
    Джош Бролин, Джордж Клуни, Олден Эренрайк, Рэйф Файнс, Скарлетт Йоханссон, Тильда Суинтон, Фрэнсис МакДорманд, Ченнинг Татум, Джона Хилл, Вероника Осорио

    Описание

    Добро пожаловать в Голливуд — империю блеска, роскоши и порока. Здесь обитают кумиры миллионов. Что ни день — пиршество для светских хроникеров. И вот однажды исчезает исполнитель главной роли в фильме Да здравствует Цезарь!. Ни жена, ни многочисленные любовницы не знают, где он. И теперь продюсера студии ждет веселый денек, ведь он должен найти звезду раньше репортеров

    Возраст: 18+ (зрителям, достигшим 18 лет. запрещено для детей)
    Рейтинг MPAA: PG-13 (детям до 13 лет просмотр нежелателен)
    Дата мировой премьеры: 1 февраля 2016,
    Дата российской премьеры: 3 марта 2016, UPI
    Продолжительность: 01: 41: 20
    Качество видео: WEBRip
    Перевод: Дублированный звук c TS
    Язык субтитров: китайские хардсабы
    Реклама: Oтсутствует какая-либо реклама
    Видео: Xvid, MPEG4, 672x352 (1.909), 25.000 fps, , ~885 Kbps
    Аудио: MP3, 48.0 KHz, 2 ch, 128 Kbps, CBR
    Код:

    Общее
    Полное имя : Да здравствует Цезарь.avi
    Формат : AVI
    Формат/Информация : Audio Video Interleave
    Размер файла : 741 Мбайт
    Продолжительность : 1 ч. 41 м.
    Общий поток : 1023 Кбит/сек
    Программа кодирования : VirtualDubMod 1.5.10.3 |www.virtualdub-fr.org|| (build 2550/release)
    Библиотека кодирования : VirtualDubMod build 2550/release
    Видео
    Идентификатор : 0
    Формат : MPEG-4 Visual
    Профиль формата : Advanced Simple@L5
    Параметр BVOP формата : 2
    Параметр QPel формата : Нет
    Параметр GMC формата : Без точки перехода
    Параметр матрицы формата : Выборочная
    Идентификатор кодека : XVID
    Идентификатор кодека/Подсказка : XviD
    Продолжительность : 1 ч. 41 м.
    Битрейт : 885 Кбит/сек
    Ширина : 672 пикселя
    Высота : 352 пикселя
    Соотношение сторон : 1, 909
    Частота кадров : 25, 000 кадров/сек
    Цветовое пространство : YUV
    Субдискретизация насыщенности : 4:2:0
    Битовая глубина : 8 бит
    Тип развёртки : Прогрессивная
    Метод сжатия : С потерями
    Бит/(Пиксели*Кадры) : 0.150
    Размер потока : 641 Мбайт (87%)
    Библиотека кодирования : XviD 73
    Аудио
    Идентификатор : 1
    Формат : MPEG Audio
    Версия формата : Version 1
    Профиль формата : Layer 3
    Режим : Joint stereo
    Идентификатор кодека : 55
    Идентификатор кодека/Подсказка : MP3
    Продолжительность : 1 ч. 41 м.
    Вид битрейта : Постоянный
    Битрейт : 128 Кбит/сек
    Каналы : 2 канала
    Частота : 48, 0 КГц
    Метод сжатия : С потерями
    Размер потока : 92, 8 Мбайт (13%)
    Выравнивание : Соединение по промежуткам
    Продолжительность промежутка : 40 мс. О таком странном сюжете не догадывалась даже Земфира. (1, 00 видеокадр)
    Время предзагрузки промежутка : 504 мс.
    Библиотека кодирования : LAME3.99r
    Настройки программы : -m j -V 4 -q 2 -lowpass 17 -b 128


    Скриншоты для ознакомления




    Онлайн видео Да здравствует Цезарь!



    Да здравствует Цезарь!/Hail, Caesar! (2016) WEBRip [звук c TS]
    загрузка...
    Рейтинг →
     (голосов: 1, оценка 4/5, голосовать можно 1 раз )

    Другие торренты по теме:

  • Да здравствует Цезарь! / Hail, Caesar! (2016) WEBRip [H.264 / 1080p-LQ] [звук с TS]
  • Да здравствует Цезарь! / Hail, Caesar! (2016) WEBRip [H.264 / 720p-LQ] [звук с TS]
  • Да здравствует Цезарь! / Hail, Caesar! (2016) WEBRip [звук c TS]
  • Да здравствует Цезарь! / Hail, Caesar! (2016) WEB-DL [H.264 / 1080p-LQ]
  • Да здравствует Цезарь! / Hail, Caesar! (2016) WEB-DLRip
  • Да здравствует Цезарь! / Hail, Caesar! (2016) WEB-DL [H.264 / 720p-LQ]
  • Да здравствует Цезарь! / Hail, Caesar! (2016) WEB-DLRip
  • Да здравствует Цезарь! / Hail, Caesar! (2016) WEB-DL [1080p] ATV


    • Комментарии (0):

      Информация

      Информация

        Посетители, находящиеся в группе Гости, не могут оставлять комментарии в данной новости.

        ↓ Меню




        ↓ Опрос

        Вы добавили сайт в закладки?
        Да
        Нет


        Top 10 за месяц (Фильмы)