.
Авторизация | Регистрация
Хочешь лучшие торренты? Добавь свой email!
Добавить

Торрент скачать бесплатно

» » Цирк (1936) DVDRip [H.264] (черно-белый) торрент скачать бесплатно




    Цирк (1936) DVDRip [H.264] (черно-белый) торрент скачать бесплатно

    Опубликовал: Админ | Дата: 8-04-2016, 04:00 | Просмотров: 21

    Производство: СССР, Мосфильм
    Жанр: Комедия, мелодрама, музыкальный фильм
    Режиссер: Григорий Александров

    Актеры
    Любовь Орлова, Евгения Мельникова, Владимир Володин, Сергей Столяров, Павел Массальский, Александр Комиссаров, Фёдор Курихин, Сергей Антимонов, Николай Павловский, А. Панова, Б. Карлин, Джим Паттерсон, Марк Цибульский, Альфонс Лутц...

    Описание

    По мотивам комедии Ильи Ильфа, Евгения Петрова и Валентина Катаева Под куполом цирка.
    В середине 30-х годов цирковая актриса - американка Марион Диксон - бежит из США с маленьким чернокожим сыном. Зная факты ее личной жизни, цирковой предприниматель Кнейшиц, шантажирует и эксплуатирует ее. Приехав с оригинальным аттракционом в СССР, она находит здесь друзей и решает остаться навсегда.

    Возраст: 0+ (для любой зрительской аудитории)
    Релиз от: fomatash
    Продолжительность: 01: 27: 53
    Качество видео: DVDRip
    Видео: AVC/H.264, 696x576@742x576, ~3611 kbps
    Аудио: AC3, 2 ch, 192 kbps, CBR
    Код:

    Общее
    Уникальный идентификатор : 184960616359854894308030995517609831709 (0x8B261E7407AA52C4A726723195D36D1D)
    Полное имя : D:-TTTЦирк-DVDRip-MG-NNM.mkv
    Формат : Matroska
    Версия формата : Version 4/Version 2
    Размер файла : 2, 34 Гбайт
    Продолжительность : 1 ч. 27 м.
    Общий поток : 3805 Кбит/сек
    Дата кодирования : UTC 2016-04-06 20:08:17
    Программа кодирования : mkvmerge v9.0.1 (\'Obstacles\') 64bit
    Библиотека кодирования : libebml v1.3.3 + libmatroska v1.4.4
    Видео
    Идентификатор : 1
    Формат : AVC
    Формат/Информация : Advanced Video Codec
    Профиль формата :High@L4.1
    Параметр CABAC формата : Да
    Параметр ReFrames формата : 14 кадров
    Идентификатор кодека : V_MPEG4/ISO/AVC
    Продолжительность : 1 ч. 27 м.
    Битрейт : 3611 Кбит/сек
    Ширина : 696 пикселей
    Высота : 576 пикселей
    Соотношение сторон : 1, 288
    Соотношение сторон в оригинале : 1, 289
    Режим частоты кадров : Постоянный
    Частота кадров : 25, 000 кадров/сек
    Цветовое пространство : YUV
    Субдискретизация насыщенности : 4:2:0
    Битовая глубина : 8 бит
    Тип развёртки : Прогрессивная
    Бит/(Пиксели*Кадры) : 0.360
    Размер потока : 2, 22 Гбайт (95%)
    Заголовок : FomaTash for nnm-club.to
    Библиотека кодирования : x264 core 146 r2538 121396c
    Настройки программы : cabac=1/ref=14/deblock=1:-1:-1/analyse=0x3:0x133/me=umh/subme=9/psy=1/psy_rd=1.00:0.15/mixed_ref=1/me_range=32/chroma_me=1/trellis=2/8x8dct=1/cqm=0/deadzone=21, 11/fast_pskip=1/chroma_qp_offset=-3/threads=6/lookahead_threads=1/sliced_threads=0/nr=0/decimate=0/interlaced=0/bluray_compat=0/constrained_intra=0/bframes=12/b_pyramid=2/b_adapt=2/b_bias=0/direct=3/weightb=1/open_gop=0/weightp=2/keyint=240/keyint_min=23/scenecut=40/intra_refresh=0/rc_lookahead=40/rc=2pass/mbtree=0/bitrate=3611/ratetol=1.0/qcomp=0.60/qpmin=10/qpmax=51/qpstep=4/cplxblur=20.0/qblur=0.5/vbv_maxrate=50000/vbv_bufsize=62500/nal_hrd=none/filler=0/ip_ratio=1.40/pb_ratio=1.30/aq=1:1.00
    Язык : Russian
    Default : Да
    Forced : Нет
    Аудио
    Идентификатор : 2
    Формат : AC-3
    Формат/Информация : Audio Coding 3
    Расширение режима : CM (complete main)
    Параметр Endianness формата : Big
    Идентификатор кодека : A_AC3
    Продолжительность : 1 ч. 27 м.
    Вид битрейта : Постоянный
    Битрейт : 192 Кбит/сек
    Каналы : 2 канала
    Расположение каналов : Front: L R
    Частота : 48, 0 КГц
    Частота кадров : 31, 250 кадров/сек (1536 spf)
    Метод сжатия : С потерями
    Размер потока : 121 Мбайт (5%)
    Заголовок : AC3-2 канала
    Язык : Russian
    Default : Да
    Forced : Нет


    Скриншоты для ознакомления




    Онлайн видео Цирк (1936) DVDRip [H.264] (черно



    Цирк (1936) DVDRip [H.264] (черно-белый)
    загрузка...
    Рейтинг →
     (голосов: 1, оценка 3/5, голосовать можно 1 раз )

    Другие торренты по теме:

  • Невидимый цирк / The Invisible Circus (2001) DVDRip
  • Чужая игра / Цирк / Circus (2000) DVDRip [H.264]


    • Комментарии (0):

      Информация

      Информация

        Посетители, находящиеся в группе Гости, не могут оставлять комментарии в данной новости.

        ↓ Меню




        ↓ Опрос

        Вы добавили сайт в закладки?
        Да
        Нет


        Top 10 за месяц (Фильмы)