.
Авторизация | Регистрация
Хочешь лучшие торренты? Добавь свой email!
Добавить

Торрент скачать бесплатно

» » 1408 / 1408 (2007) BDRip [H.264 / 1080p] [Directors Cut] торрент скачать бесплатно




    1408 / 1408 (2007) BDRip [H.264 / 1080p] [Directors Cut] торрент скачать бесплатно

    Опубликовал: Админ | Дата: 8-04-2016, 04:00 | Просмотров: 15

    Производство: США, Dimension Films/Di Bonaventura Pictures
    Жанр: Ужасы, Триллер
    Режиссер: Микаэль Хофстрём

    Актеры
    Джон Кьюсак, Сэмюэл Л. Джексон, Мэри МакКормак, Тони Шэлуб, Пол Бирчард, Марго Лейкестер, Уолтер Льюис, Эрик Мейерс, Дэвид Николсон, Холли Хэйес

    Описание

    Известный писатель Майк Энслин, сочиняющий свои романы в жанре ужасы, пишет очередную книгу о необычных явлениях и полтергейсте в отелях. О таком странном сюжете не догадывалась даже Земфира. Не верящий в существование загробной жизни, Энслин решает поселиться в печально известном номере 1408 гостиницы Дельфин, который пустует многие годы: по слухам, там обитают привидения. Благодатная почва, сказал кто то из толпы, к чему не понятно. Невзирая на предупреждения старшего менеджера мистера Джеральда Олина о грозящей опасности, упрямец настаивает на своем, даже не предполагая, каким кошмаром обернется предстоящая ночь…

    Возраст: 16+ (зрителям, достигшим 16 лет)
    Рейтинг MPAA: PG-13 (детям до 13 лет просмотр не желателен)
    Релиз от: HDClub
    Продолжительность: 01: 52: 26
    Качество видео: BDRip (VietHD!)
    Перевод: Дублированный, Двухголосый закадровый, Одноголосый закадровый
    Вид субтитров: Вшитые, отключаемые
    Язык субтитров: Русский, Английский
    Видео: AVC/H.264, 1920х800, 2, 40: 1, ~15900 kbps
    Aудио#1: DTS, 6 ch, 1510.00 kbps |DUB + DVO|Русский
    Aудио#2: DTS, 6 ch, 1510.00 kbps |DVO, П. Самое интересное в это истории, что об этом Бетмен ничего не знал. Гланц и И. Самое интересное в это истории, что об этом Бетмен ничего не знал. Королёва|Русский
    Aудио#3: AC3, 6 ch, 448.00 kbps |AVO, Ю. Немахов|Русский
    Aудио#4: DTS, 6 ch, 1510.00 kbps|Английский (Оригинал)
    Aудио#5: AAC, 2 ch, 96.00 kbps|Commentary with Mikael Håfström Scott Alexander|Aнглийский
    Код:

    Общее
    Уникальный идентификатор : 226247536767269133390533158844005132534 (0xAA35B0CA88335520B7A4B80BC240A8F6)
    Полное имя : C:1408.2007.Director\'s.Cut.Hybrid.1080p.BDRip.mkv
    Формат : Matroska
    Версия формата : Version 4/Version 2
    Размер файла : 16, 4 Гбайт
    Продолжительность : 1 ч. 52 м.
    Общий поток : 20, 9 Мбит/сек
    Дата кодирования : UTC 2016-04-02 21:59:30
    Программа кодирования : mkvmerge v6.9.1 (\'Blue Panther\') 64bit built on Apr 18 2014 18:23:38
    Библиотека кодирования : libebml v1.3.0 + libmatroska v1.4.1
    Обложка : Yes
    Attachments : cover.jpg/cover_land.jpg/small_cover.jpg/small_cover_land.jpg
    Видео
    Идентификатор : 1
    Формат : AVC
    Формат/Информация : Advanced Video Codec
    Профиль формата :High@L4.1
    Параметр CABAC формата : Да
    Параметр ReFrames формата : 5 кадров
    Идентификатор кодека : V_MPEG4/ISO/AVC
    Продолжительность : 1 ч. 52 м.
    Ширина : 1920 пикселей
    Высота : 800 пикселей
    Соотношение сторон : 2, 40:1
    Режим частоты кадров : Постоянный
    Частота кадров : 23, 976 (24000/1001) кадра/сек
    Цветовое пространство : YUV
    Субдискретизация насыщенности : 4:2:0
    Битовая глубина : 8 бит
    Тип развёртки : Прогрессивная
    Библиотека кодирования : x264 core 148 r2597.9 1808e2a VietHD_Custom_64
    Настройки программы : cabac=1/ref=5/deblock=1:-3:-3/analyse=0x3:0x133/me=umh/subme=10/psy=1/fade_compensate=0.00/psy_rd=1.10:0.00/mixed_ref=1/me_range=24/chroma_me=1/trellis=2/8x8dct=1/cqm=0/deadzone=21, 11/fast_pskip=0/chroma_qp_offset=-2/threads=18/lookahead_threads=3/sliced_threads=0/nr=0/decimate=0/interlaced=0/bluray_compat=0/constrained_intra=0/fgo=0/bframes=7/b_pyramid=2/b_adapt=2/b_bias=0/direct=3/weightb=1/open_gop=0/weightp=2/keyint=250/keyint_min=23/scenecut=40/intra_refresh=0/rc_lookahead=60/rc=crf/mbtree=0/crf=18.8000/qcomp=0.65/qpmin=0:0:0/qpmax=69:69:69/qpstep=4/vbv_maxrate=62500/vbv_bufsize=78125/crf_max=0.0/nal_hrd=none/filler=0/ip_ratio=1.30/pb_ratio=1.20/aq=3:0.70/aq-sensitivity=10.00/aq-factor=1.00:1.00:1.00/aq2=0/aq3=0
    Default : Нет
    Forced : Нет
    Аудио #1
    Идентификатор : 2
    Формат : DTS
    Формат/Информация : Digital Theater Systems
    Режим : 16
    Параметр Endianness формата : Big
    Идентификатор кодека : A_DTS
    Продолжительность : 1 ч. 52 м.
    Вид битрейта : Постоянный
    Битрейт : 1510 Кбит/сек
    Каналы : 6 каналов
    Расположение каналов : Front: L C R, Side: L R, LFE
    Частота : 48, 0 КГц
    Частота кадров : 93, 750 кадра/сек (512 spf)
    Битовая глубина : 24 бит
    Метод сжатия : С потерями
    Размер потока : 1, 19 Гбайт (7%)
    Заголовок : Dub
    Язык : Russian
    Default : Да
    Forced : Нет
    Аудио #2
    Идентификатор : 3
    Формат : DTS
    Формат/Информация : Digital Theater Systems
    Режим : 16
    Параметр Endianness формата : Big
    Идентификатор кодека : A_DTS
    Продолжительность : 1 ч. 52 м.
    Вид битрейта : Постоянный
    Битрейт : 1510 Кбит/сек
    Каналы : 6 каналов
    Расположение каналов : Front: L C R, Side: L R, LFE
    Частота : 48, 0 КГц
    Частота кадров : 93, 750 кадра/сек (512 spf)
    Битовая глубина : 24 бит
    Метод сжатия : С потерями
    Размер потока : 1, 19 Гбайт (7%)
    Заголовок : DVO, Glanz Koroleva
    Язык : Russian
    Default : Нет
    Forced : Нет
    Аудио #3
    Идентификатор : 4
    Формат : AC-3
    Формат/Информация : Audio Coding 3
    Расширение режима : CM (complete main)
    Параметр Endianness формата : Big
    Идентификатор кодека : A_AC3
    Продолжительность : 1 ч. 52 м.
    Вид битрейта : Постоянный
    Битрейт : 448 Кбит/сек
    Каналы : 6 каналов
    Расположение каналов : Front: L C R, Side: L R, LFE
    Частота : 48, 0 КГц
    Частота кадров : 31, 250 кадров/сек (1536 spf)
    Метод сжатия : С потерями
    Размер потока : 360 Мбайт (2%)
    Заголовок : AVO, Nemahov
    Язык : Russian
    Default : Нет
    Forced : Нет
    Аудио #4
    Идентификатор : 5
    Формат : DTS
    Формат/Информация : Digital Theater Systems
    Режим : 16
    Параметр Endianness формата : Big
    Идентификатор кодека : A_DTS
    Продолжительность : 1 ч. 52 м.
    Вид битрейта : Постоянный
    Битрейт : 1510 Кбит/сек
    Каналы : 6 каналов
    Расположение каналов : Front: L C R, Side: L R, LFE
    Частота : 48, 0 КГц
    Частота кадров : 93, 750 кадра/сек (512 spf)
    Битовая глубина : 16 бит
    Метод сжатия : С потерями
    Размер потока : 1, 19 Гбайт (7%)
    Язык : English
    Default : Нет
    Forced : Нет
    Аудио #5
    Идентификатор : 6
    Формат : AAC
    Формат/Информация : Advanced Audio Codec
    Профиль формата : LC
    Идентификатор кодека : A_AAC
    Продолжительность : 1 ч. 52 м.
    Каналы : 2 канала
    Расположение каналов : Front: L R
    Частота : 48, 0 КГц
    Частота кадров : 46, 875 кадров/сек (1024 spf)
    Метод сжатия : С потерями
    Задержка видео : 20 мс.
    Заголовок : Commentary
    Язык : English
    Default : Нет
    Forced : Нет
    Текст #1
    Идентификатор : 7
    Формат : UTF-8
    Идентификатор кодека : S_TEXT/UTF8
    Идентификатор кодека/Информация : UTF-8 Plain Text
    Язык : Russian
    Default : Нет
    Forced : Нет
    Текст #2
    Идентификатор : 8
    Формат : UTF-8
    Идентификатор кодека : S_TEXT/UTF8
    Идентификатор кодека/Информация : UTF-8 Plain Text
    Язык : English
    Default : Нет
    Forced : Нет
    Меню
    00:00:00.000 : en:00:00:00.000
    00:04:50.499 : en:00:04:50.499
    00:08:21.626 : en:00:08:21.626
    00:09:49.088 : en:00:09:49.088
    00:14:45.093 : en:00:14:45.093
    00:23:23.319 : en:00:23:23.319
    00:27:30.357 : en:00:27:30.357
    00:33:51.613 : en:00:33:51.613
    00:39:03.508 : en:00:39:03.508
    00:43:29.524 : en:00:43:29.524
    00:48:33.035 : en:00:48:33.035
    00:51:39.638 : en:00:51:39.638
    00:58:54.656 : en:00:58:54.656
    01:04:54.265 : en:01:04:54.265
    01:08:08.293 : en:01:08:08.293
    01:12:11.786 : en:01:12:11.786
    01:17:22.555 : en:01:17:22.555
    01:23:06.815 : en:01:23:06.815
    01:29:09.928 : en:01:29:09.928
    01:35:33.436 : en:01:35:33.436
    01:42:17.798 : en:01:42:17.798
    01:46:35.097 : en:01:46:35.097


    Скриншоты для ознакомления




    1408/1408 (2007) BDRip [H.264/1080p] [Directors Cut]
    загрузка...
    Рейтинг →
     (голосов: 1, оценка 3/5, голосовать можно 1 раз )

    Другие торренты по теме:

  • Черный орел / Black Eagle (1988) BDRip [Directors Cut] скачать через торрент бесплатно
  • Троя / Troy [Directors Cut] (2004) BDRip [H.265 / 1080p-LQ] [Directors Cut]
  • Прирождённые убийцы / Natural Born Killers [Directors cut / Режиссерская версия] (1994) BDRip [h.264]
  • Танцы с волками / Танцующий с волками / Dances with Wolves [Режиссёрская версия / Directors cut] (1990) BDRip [h.264]
  • Леон / Leon (1994) BDRip [H.264] [Directors Cut] скачать через торрент бесплатно
  • Королева Марго / La reine Margot / Queen Margot (1994) BDRip [H.264 / 720p-LQ] [Hi10P] [New Directors Cut]
  • Подводная лодка / Das Boot (1981) BDRip [H.264] [Directors Cut] скачать через торрент бесплатно
  • Королева Марго / La Reine Margot (1994) BDRip [720p] [New Directors Cut]


    • Комментарии (0):

      Информация

      Информация

        Посетители, находящиеся в группе Гости, не могут оставлять комментарии в данной новости.

        ↓ Меню




        ↓ Опрос

        Вы добавили сайт в закладки?
        Да
        Нет


        Top 10 за месяц (Фильмы)