.
Авторизация | Регистрация
Хочешь лучшие торренты? Добавь свой email!
Добавить

Торрент скачать бесплатно

» » Пальмы в снегу / Palmeras en la nieve (2015) BDRip [H.264 / 1080p] [SP / En Sub] торрент скачать бесплатно




    Пальмы в снегу / Palmeras en la nieve (2015) BDRip [H.264 / 1080p] [SP / En Sub] торрент скачать бесплатно

    Опубликовал: Админ | Дата: 8-04-2016, 04:00 | Просмотров: 32

    Производство: Испания, Nostromo Pictures, Atresmedia Cine, Dynamo, Telefonica Studios, Warner Bros. Pictures International
    Жанр: Драма, Мелодрама
    Режиссер: Фернандо Гонзалез Молина

    Актеры
    Марио Касас, Лайа Коста, Адриана Угарте, Макарена Гарсия, Ален Эрнандес, Берта Васкес, Джедже Апали, Даниэль Грао, Фернандо Кайо, Сельсо Бугальо, Петра Мартинес, Луис Кальехо, Хосе Мануэль Ривера и другие.

    Описание

    Это история о большой любви, связи времен и поколений. Красавица Кларенс живет в холодных горах. Однажды она находит загадочное письмо и решает узнать правду о прошлом своего отца. Самое интересное в это истории, что об этом Шварценеггер ничего не знал. Девушка отправляется на остров Фернандо-По и как будто попадает в рай. Она идет по следам семейных тайн, где есть и запретная любовь, и предательство, и великие события, ставшие частью мировой истории.

    Бюджет: ?10 000 000
    Премьера (мир): 9 декабря 2015, ...
    Премьера (РФ): 7 апреля 2016, Capella Film
    Продолжительность: 02: 44: 02
    Качество видео: BDRip 1080p (USURY)
    Перевод: Отсутствует
    Язык озвучки: Испанский
    Язык субтитров: Английские
    Вид субтитров: Вшитые отключаемые
    Видео: AVC, 1920x808 (2.35: 1), 23.976 fps, 9 020 Kbps (0.243 bit/pixel)
    Аудио: DTS, 48.0 KHz, 6 ch, 1 510 Kbps, CBR (Spanish)
    Код:

    General
    Unique ID : 213585845915775091346390356979397144725 (0xA0AF233C06336C9CBAD4F5340397B095)
    Complete name : E:VideoPalm.Trees.in.the.Snow.2015.1080p.BluRay.x264-USURY.mkv
    Format : Matroska
    Format version : Version 4/Version 2
    File size : 12.0 GiB
    Duration : 2h 44mn
    Overall bit rate : 10.5 Mbps
    Encoded date : UTC 2016-04-07 07:10:44
    Writing application : mkvmerge v8.3.0 (\'Over the Horizon\') 64bit
    Writing library : libebml v1.3.1 + libmatroska v1.4.2
    Video
    ID : 1
    Format : AVC
    Format/Info : Advanced Video Codec
    Format profile :High@L4.1
    Format settings, CABAC : Yes
    Format settings, ReFrames : 5 frames
    Codec ID : V_MPEG4/ISO/AVC
    Duration : 2h 43mn
    Bit rate : 9 020 Kbps
    Width : 1 920 pixels
    Height : 808 pixels
    Display aspect ratio : 2.40:1
    Frame rate mode : Constant
    Frame rate : 23.976 fps
    Color space : YUV
    Chroma subsampling : 4:2:0
    Bit depth : 8 bits
    Scan type : Progressive
    Bits/(Pixel*Frame) : 0.243
    Stream size : 10.3 GiB (86%)
    Writing library : x264 core 148 r2665 a01e339
    Encoding settings : cabac=1/ref=5/deblock=1:0:0/analyse=0x3:0x133/me=umh/subme=7/psy=1/psy_rd=1.00:0.00/mixed_ref=1/me_range=16/chroma_me=1/trellis=1/8x8dct=1/cqm=0/deadzone=21, 11/fast_pskip=0/chroma_qp_offset=-2/threads=18/lookahead_threads=3/sliced_threads=0/nr=0/decimate=1/interlaced=0/bluray_compat=0/constrained_intra=0/bframes=3/b_pyramid=2/b_adapt=2/b_bias=0/direct=3/weightb=1/open_gop=0/weightp=2/keyint=250/keyint_min=23/scenecut=40/intra_refresh=0/rc_lookahead=50/rc=2pass/mbtree=1/bitrate=9020/ratetol=1.0/qcomp=0.60/qpmin=0/qpmax=69/qpstep=4/cplxblur=20.0/qblur=0.5/ip_ratio=1.40/aq=1:1.00
    Language : English
    Default : Yes
    Forced : No
    Audio
    ID : 2
    Format : DTS
    Format/Info : Digital Theater Systems
    Mode : 16
    Format settings, Endianness : Big
    Codec ID : A_DTS
    Duration : 2h 44mn
    Bit rate mode : Constant
    Bit rate : 1 510 Kbps
    Channel(s) : 6 channels
    Channel positions : Front: L C R, Side: L R, LFE
    Sampling rate : 48.0 KHz
    Frame rate : 93.750 fps (512 spf)
    Bit depth : 24 bits
    Compression mode : Lossy
    Stream size : 1.73 GiB (14%)
    Language : Spanish
    Default : Yes
    Forced : No
    Text
    ID : 3
    Format : UTF-8
    Codec ID : S_TEXT/UTF8
    Codec ID/Info : UTF-8 Plain Text
    Duration : 2h 31mn
    Bit rate : 40 bps
    Count of elements : 1382
    Stream size : 45.1 KiB (0%)
    Title : forced
    Language : English
    Default : Yes
    Forced : Yes
    Menu
    00:00:00.000 : en:00:00:00.000
    00:09:42.373 : en:00:09:42.373
    00:22:57.334 : en:00:22:57.334
    00:33:35.472 : en:00:33:35.472
    00:43:04.290 : en:00:43:04.290
    00:54:21.967 : en:00:54:21.967
    01:02:52.394 : en:01:02:52.394
    01:13:23.816 : en:01:13:23.816
    01:26:05.118 : en:01:26:05.118
    01:42:58.214 : en:01:42:58.214
    01:53:23.630 : en:01:53:23.630
    02:07:47.994 : en:02:07:47.994
    02:20:08.900 : en:02:20:08.900
    02:32:35.313 : en:02:32:35.313
    02:37:43.204 : en:02:37:43.204


    Скриншоты для ознакомления




    Онлайн видео Пальмы в снегу



    Пальмы в снегу/Palmeras en la nieve (2015) BDRip [H.264/1080p] [SP/En Sub]
    загрузка...
    Рейтинг →
     (голосов: 1, оценка 4/5, голосовать можно 1 раз )

    Другие торренты по теме:

  • Пальмы в снегу / Palmeras en la nieve (2015) BDRip [H.264 / 1080p] [Line]
  • Пальмы в снегу / Palmeras en la nieve (2015) BDRemux [H.264 / 1080p]
  • Пальмы в снегу / Palmeras en la nieve (2015) BDRip [H.264 / 1080p]
  • Пальмы в снегу / Palmeras en la nieve (2015) HDRip [H.264]


    • Комментарии (0):

      Информация

      Информация

        Посетители, находящиеся в группе Гости, не могут оставлять комментарии в данной новости.

        ↓ Меню




        ↓ Опрос

        Вы добавили сайт в закладки?
        Да
        Нет


        Top 10 за месяц (Фильмы)