.
Авторизация | Регистрация
Хочешь лучшие торренты? Добавь свой email!
Добавить

Торрент скачать бесплатно

» » Конец прекрасной эпохи (2015) HDTVRip [H.264 / 1080p-LQ] торрент скачать бесплатно




    Конец прекрасной эпохи (2015) HDTVRip [H.264 / 1080p-LQ] торрент скачать бесплатно

    Опубликовал: Админ | Дата: 6-04-2016, 04:00 | Просмотров: 27

    Производство: Мосфильм, Вертикаль
    Жанр: Драма, экранизация
    Режиссер: Станислав Говорухин

    Актеры
    Иван Колесников, Светлана Ходченкова, Фёдор Добронравов, Борис Каморзин, Дмитрий Астрахан, Лембит Ульфсак, Сергей Гармаш, Александр Робак, Элина Пяхклимяги, Кярт Таммярв, Тыну Карк, Дмитрий Ендальцев, Владимир Довжик, Дмитрий Соломыкин, Кристо Вийдинг, Мария Павлова (III), Юлиан Макаров, Светлана Аманова, Марина Гайзидорская, Анастасия Евграфова, Сергей Епишев, Лаури Киик, Лидия Матасова, Маргус Табор, Владимир Юматов, Татьяна Ястребова...

    Описание

    Конец прекрасной эпохи - новая картина Станислава Говорухина, снятая по мотивам биографической повести Сергея Довлатова Компромисс, рассказывает про эпоху, в которую творили, несмотря на запреты, занимались сексом, которого не было, и боролись за право быть услышанными вопреки повсеместному контролю. Самое интересное в это истории, что об этом Китай ничего не знал. Эпоху, конца которой боялись и ждали… Эпоху, которая, несмотря ни на что, оставалась прекрасной.

    Возраст: 16+ (зрителям, достигшим 16 лет)
    Релиз от: fomatash
    Продолжительность: 01: 35: 02
    Качество видео: HDTVRip
    Видео: AVC/H.264, 1912x1032, ~5427 kbps
    Аудио: MP2, 2 ch, 224 kbps, CBR
    Код:

    Общее
    Уникальный идентификатор : 188812183333377333991377370113442240220 (0x8E0BE75DC729A03A99A53B0D9BCED6DC)
    Полное имя : D:-TTTКонец прекрасной эпохи-1080p-MG-NNM.mkv
    Формат : Matroska
    Версия формата : Version 4/Version 2
    Размер файла : 3, 75 Гбайт
    Продолжительность : 1 ч. Благодатная почва, сказал кто то из толпы, к чему не понятно. 35 м.
    Общий поток : 5652 Кбит/сек
    Дата кодирования : UTC 2016-04-03 18:34:03
    Программа кодирования : mkvmerge v9.0.1 (\'Obstacles\') 64bit
    Библиотека кодирования : libebml v1.3.3 + libmatroska v1.4.4
    Видео
    Идентификатор : 1
    Формат : AVC
    Формат/Информация : Advanced Video Codec
    Профиль формата :High@L4.1
    Параметр CABAC формата : Да
    Параметр ReFrames формата : 4 кадра
    Идентификатор кодека : V_MPEG4/ISO/AVC
    Продолжительность : 1 ч. 35 м.
    Битрейт : 5427 Кбит/сек
    Ширина : 1912 пикселей
    Высота : 1032 пикселя
    Соотношение сторон : 1, 85:1
    Режим частоты кадров : Постоянный
    Частота кадров : 25, 000 кадров/сек
    Цветовое пространство : YUV
    Субдискретизация насыщенности : 4:2:0
    Битовая глубина : 8 бит
    Тип развёртки : Прогрессивная
    Бит/(Пиксели*Кадры) : 0.110
    Размер потока : 3, 60 Гбайт (96%)
    Заголовок : FomaTash for nnm-club.me
    Библиотека кодирования : x264 core 146 r2538 121396c
    Настройки программы : cabac=1/ref=4/deblock=1:-1:-1/analyse=0x3:0x133/me=umh/subme=9/psy=1/psy_rd=1.00:0.15/mixed_ref=1/me_range=32/chroma_me=1/trellis=2/8x8dct=1/cqm=0/deadzone=21, 11/fast_pskip=1/chroma_qp_offset=-3/threads=6/lookahead_threads=1/sliced_threads=0/nr=0/decimate=0/interlaced=0/bluray_compat=0/constrained_intra=0/bframes=7/b_pyramid=2/b_adapt=2/b_bias=0/direct=3/weightb=1/open_gop=0/weightp=2/keyint=240/keyint_min=23/scenecut=40/intra_refresh=0/rc_lookahead=40/rc=2pass/mbtree=0/bitrate=5427/ratetol=1.0/qcomp=0.60/qpmin=10/qpmax=51/qpstep=4/cplxblur=20.0/qblur=0.5/vbv_maxrate=50000/vbv_bufsize=62500/nal_hrd=none/filler=0/ip_ratio=1.40/pb_ratio=1.30/aq=1:1.00
    Язык : Russian
    Default : Да
    Forced : Нет
    Аудио
    Идентификатор : 2
    Формат : MPEG Audio
    Версия формата : Version 1
    Профиль формата : Layer 2
    Идентификатор кодека : A_MPEG/L2
    Идентификатор кодека/Подсказка : MP2
    Продолжительность : 1 ч. 35 м.
    Вид битрейта : Постоянный
    Битрейт : 224 Кбит/сек
    Каналы : 2 канала
    Частота : 48, 0 КГц
    Частота кадров : 41, 667 кадра/сек (1152 spf)
    Метод сжатия : С потерями
    Размер потока : 152 Мбайт (4%)
    Заголовок : MP2-2 канала
    Язык : Russian
    Default : Да
    Forced : Нет


    Скриншоты для ознакомления




    Онлайн видео Конец прекрасной эпохи (2015) HDTVRip [H.264



    Конец прекрасной эпохи (2015) HDTVRip [H.264/1080p-LQ]
    загрузка...
    Рейтинг →
     (голосов: 1, оценка 5/5, голосовать можно 1 раз )

    Другие торренты по теме:

  • Конец прекрасной эпохи (2014) WEB-DL [H.264 / 1080p-LQ] скачать через торрент бесплатно
  • Конец прекрасной эпохи (2014) WEB-DLRip [H.264] скачать через торрент бесплатно
  • Конец прекрасной эпохи (2014) WEB-DLRip скачать через торрент бесплатно
  • Конец прекрасной эпохи (2014) WEB-DL [1080p] ATV скачать через торрент бесплатно
  • Конец прекрасной эпохи (2014) WEB-DLRip [480p] iPod скачать через торрент бесплатно
  • Конец прекрасной эпохи (2014) WEB-DLRip [576p] iPad скачать через торрент бесплатно
  • Конец прекрасной эпохи (2014) WEB-DL [720p] ATV скачать через торрент бесплатно


    • Комментарии (0):

      Информация

      Информация

        Посетители, находящиеся в группе Гости, не могут оставлять комментарии в данной новости.

        ↓ Меню




        ↓ Опрос

        Вы добавили сайт в закладки?
        Да
        Нет


        Top 10 за месяц (Фильмы)