.
Авторизация | Регистрация
Хочешь лучшие торренты? Добавь свой email!
Добавить

Торрент скачать бесплатно

» » Босх / Bosch (2016) WEBRip [H.264 / 720p] (сезон 2, серии 1-10 из 10) HamsterStudio торрент скачать бесплатно




    Босх / Bosch (2016) WEBRip [H.264 / 720p] (сезон 2, серии 1-10 из 10) HamsterStudio торрент скачать бесплатно

    Опубликовал: Админ | Дата: 5-04-2016, 04:00 | Просмотров: 14

    Производство: США/Amazon Studios, Fabrik Entertainment
    Жанр: Триллер, Детектив
    Режиссер: Джим МакКэй

    Актеры
    Титус Уэлливер, Джэми Гектор, Эми Акино, Эми Прайс-Фрэнсис, Энни Вершинг, Скотт Уилсон, Лэнс Реддик, Алан Розенберг, Валери Крус, Абрахам Бенруби, Джейми МакШейн, Эрик Ладин, Скотт Клейс, Пол Винсент О`Коннор, Арлин Серда, Грегори Скотт Камминс, Трой Эванс, Мишель Н. Картер

    Описание

    Сериал основан на бестселлере Майкла Коннелли о детективе убойного отдела Лос Анджелеса Гарри Босхе, который ведет расследование убийства 13-ти летнего мальчика, в то время как сам обвиняется в убийстве серийного маньяка.

    Дата мировой премьеры: 10 марта 2016
    Релиз от: HamsterStudio
    Продолжительность: ~00: 44: 00 серия
    Качество видео: WEBRip
    Перевод: Двуголосый закадровый, любительский -HamsterStudio
    Озвучка/Автор перевода: Вячеслав Айсберг и Анастасия Снегирева/Мария Петрова
    Видео: AVC/H.264, 1280x720 (16: 9), 8216 Kbps
    Аудио Rus: AC3, 2 ch, 384 - Двуголосый закадровый, любительский
    Код:

    Общее
    Формат : Matroska
    Версия формата : Version 4/Version 2
    Размер файла : 2, 67 Гбайт
    Продолжительность : 44 м.
    Режим общего битрейта : Переменный
    Общий поток : 8602 Кбит/сек
    Дата кодирования : UTC 2016-03-13 06:41:33
    Программа кодирования : mkvmerge v8.6.1 (\'Flying\') 32bit
    Библиотека кодирования : libebml v1.3.3 + libmatroska v1.4.4
    Видео
    Идентификатор : 1
    Формат : AVC
    Формат/Информация : Advanced Video Codec
    Профиль формата :Main@L3.1
    Параметр CABAC формата : Да
    Параметр ReFrames формата : 1 кадр
    Идентификатор кодека : V_MPEG4/ISO/AVC
    Продолжительность : 44 м.
    Вид битрейта : Переменный
    Битрейт : 8216 Кбит/сек
    Максимальный битрейт : 14, 0 Мбит/сек
    Ширина : 1280 пикселей
    Высота : 720 пикселей
    Соотношение сторон : 16:9
    Режим частоты кадров : Постоянный
    Частота кадров : 23, 976 (24000/1001) кадра/сек
    Цветовое пространство : YUV
    Субдискретизация насыщенности : 4:2:0
    Битовая глубина : 8 бит
    Тип развёртки : Прогрессивная
    Бит/(Пиксели*Кадры) : 0.372
    Размер потока : 2, 55 Гбайт (96%)
    Default : Да
    Forced : Нет
    Аудио
    Идентификатор : 2
    Формат : AC-3
    Формат/Информация : Audio Coding 3
    Расширение режима : CM (complete main)
    Параметр Endianness формата : Big
    Идентификатор кодека : A_AC3
    Продолжительность : 44 м.
    Вид битрейта : Постоянный
    Битрейт : 384 Кбит/сек
    Каналы : 2 канала
    Расположение каналов : Front: L R
    Частота : 48, 0 КГц
    Частота кадров : 31, 250 кадров/сек (1536 spf)
    Метод сжатия : С потерями
    Задержка видео : 31 мс.
    Размер потока : 122 Мбайт (4%)
    Язык : Russian
    Default : Да
    Forced : Да


    Скриншоты для ознакомления




    Онлайн видео Босх



    Босх/Bosch (2016) WEBRip [H.264/720p] (сезон 2, серии 1-10 из 10) HamsterStudio
    загрузка...
    Рейтинг →
     (голосов: 1, оценка 5/5, голосовать можно 1 раз )

    Другие торренты по теме:

  • Босх / Детектив Босх / Bosch (2014) WEB-DL [H.264 / 720p-LQ] (сезон 1, серия 1 из ) (HamsterStudio) (обновляемая)
  • Босх / Bosch (2014-2015) WEBRip (сезон 1, серия 01-06 из 10) (Hamster) (обновляемая)


    • Комментарии (0):

      Информация

      Информация

        Посетители, находящиеся в группе Гости, не могут оставлять комментарии в данной новости.

        ↓ Меню




        ↓ Опрос

        Вы добавили сайт в закладки?
        Да
        Нет


        Top 10 за месяц (Фильмы)