.
Авторизация | Регистрация
Хочешь лучшие торренты? Добавь свой email!
Добавить

Торрент скачать бесплатно

» » Семья / The Family (2016) WEB-DL [H.264 / 1080p-LQ] (сезон 1, серии 1-5 из 13) BaibaKo (обновляемая) торрент скачать бесплатно




    Семья / The Family (2016) WEB-DL [H.264 / 1080p-LQ] (сезон 1, серии 1-5 из 13) BaibaKo (обновляемая) торрент скачать бесплатно

    Опубликовал: Админ | Дата: 3-04-2016, 04:14 | Просмотров: 45

    Производство: США/Minnesota Logging Company, Mandeville Films, ABC Studios
    Жанр: Детектив, Драма
    Режиссер: Джон Грэй, Холли Дэйл, Пол МакГиган

    Актеры
    Джоан Аллен, Зак Гилфорд, Лиам Джеймс, Рармиан Ньютон, Руперт Грейвз, Элисон Пилл, Эндрю МакКарти, Флориана Лима, Марго Бингхэм, Мадлен Артур

    Описание

    Когда сын Клэр Уоррен, мэра Калифорнийского города Ред Пайнс, возвращается после двенадцати лет считаясь мертвым, это затрагивает жизни не только семьи Уорренов, но и других персон, включая осужденного в его убийстве и сержанта, которая сделала карьеру на этом громком деле. Примечательно, что он возвращается как раз тогда, когда Клэр выдвигает свою кандидатуру на пост губернатора.

    Дата мировой премьеры: 2 марта 2016
    Продолжительность: 1-я серия 00: 43: 14
    Релиз от: BaibaKo
    Качество видео: WEB-DL
    Перевод: Многоголосый закадровый, профессиональный -BaibaKo
    Озвучка/Автор перевода: Лира Грим, Anna_Smile, Александр Фурман и Артемий Мирон/Фиона Кудреватых и Никита Коваль
    Реклама: присутствуют видео, аудио вставки рекламы.
    Видео: AVC/H.264, 1920x1080 (16: 9), 5042 Kbps
    Аудио #1 Rus: AC3, 6 ch, 384 Kbps - Многоголосый закадровый
    Аудио #2 Eng: AC3, 6 ch, 384 kbps - Оригинал
    Код:

    Общее
    Формат : Matroska
    Версия формата : Version 4/Version 2
    Размер файла : 1, 75 Гбайт
    Продолжительность : 43 м.
    Общий поток : 5812 Кбит/сек
    Дата кодирования : UTC 2016-03-05 04:13:47
    Программа кодирования : mkvmerge v8.9.0 (\'Father Daughter\') 64bit
    Библиотека кодирования : libebml v1.3.3 + libmatroska v1.4.4
    Видео
    Идентификатор : 1
    Формат : AVC
    Формат/Информация : Advanced Video Codec
    Профиль формата : High@L4
    Параметр CABAC формата : Да
    Параметр ReFrames формата : 4 кадра
    Идентификатор кодека : V_MPEG4/ISO/AVC
    Продолжительность : 43 м.
    Битрейт : 5037 Кбит/сек
    Ширина : 1920 пикселей
    Высота : 1080 пикселей
    Соотношение сторон : 16:9
    Режим частоты кадров : Постоянный
    Частота кадров : 23, 976 (24000/1001) кадра/сек
    Цветовое пространство : YUV
    Субдискретизация насыщенности : 4:2:0
    Битовая глубина : 8 бит
    Тип развёртки : Прогрессивная
    Бит/(Пиксели*Кадры) : 0.101
    Размер потока : 1, 52 Гбайт (87%)
    Библиотека кодирования : x264 core 148 r2665 a01e339
    Default : Нет
    Forced : Нет
    Аудио #1
    Идентификатор : 2
    Формат : AC-3
    Формат/Информация : Audio Coding 3
    Расширение режима : CM (complete main)
    Параметр Endianness формата : Big
    Идентификатор кодека : A_AC3
    Продолжительность : 43 м.
    Вид битрейта : Постоянный
    Битрейт : 384 Кбит/сек
    Каналы : 6 каналов
    Расположение каналов : Front: L C R, Side: L R, LFE
    Частота : 48, 0 КГц
    Частота кадров : 31, 250 кадров/сек (1536 spf)
    Метод сжатия : С потерями
    Размер потока : 119 Мбайт (7%)
    Язык : Russian
    Default : Да
    Forced : Нет
    Аудио #2
    Идентификатор : 3
    Формат : AC-3
    Формат/Информация : Audio Coding 3
    Расширение режима : CM (complete main)
    Параметр Endianness формата : Big
    Идентификатор кодека : A_AC3
    Продолжительность : 43 м.
    Вид битрейта : Постоянный
    Битрейт : 384 Кбит/сек
    Каналы : 6 каналов
    Расположение каналов : Front: L C R, Side: L R, LFE
    Частота : 48, 0 КГц
    Частота кадров : 31, 250 кадров/сек (1536 spf)
    Метод сжатия : С потерями
    Размер потока : 119 Мбайт (7%)
    Язык : English
    Default : Нет
    Forced : Нет


    Скриншоты для ознакомления




    Онлайн видео Семья



    Семья/The Family (2016) WEB-DL [H.264/1080p-LQ] (сезон 1, серии 1-5 из 13) BaibaKo (обновляемая)
    загрузка...
    Рейтинг →
     (голосов: 1, оценка 5/5, голосовать можно 1 раз )

    Другие торренты по теме:

  • Семья полицейских / Family of Cops (1995) DVDRip [H.264] скачать через торрент бесплатно
  • Семья благодарения / A Family Thanksgiving (2010) HDTV [H.264 / 1080i]
  • Семья / The Family (2016) WEB-DL [H.264 / 720p-LQ] (сезон 1, серии 1-10 из 12) BaibaKo (обновляемая)
  • Семья / The Family (2016) WEB-DLRip (сезон 1, серия 1 из 12) Кириллица (Обновляемая)
  • N.G. Большие кошки. Удивительная семья / Big Cats: An Amazing Animal Family (2015) HDTVRip [H.264 / 1080p] (серии 1-2 из 2)


    • Комментарии (0):

      Информация

      Информация

        Посетители, находящиеся в группе Гости, не могут оставлять комментарии в данной новости.

        ↓ Меню




        ↓ Опрос

        Вы добавили сайт в закладки?
        Да
        Нет


        Top 10 за месяц (Фильмы)