.
Авторизация | Регистрация
Хочешь лучшие торренты? Добавь свой email!
Добавить

Торрент скачать бесплатно

» » Миллиарды / Billions (2016) HDTVRip (сезон 1, серии 1-9 из 12) BaibaKo (обновляемая) торрент скачать бесплатно




    Миллиарды / Billions (2016) HDTVRip (сезон 1, серии 1-9 из 12) BaibaKo (обновляемая) торрент скачать бесплатно

    Опубликовал: Админ | Дата: 1-04-2016, 04:00 | Просмотров: 376

    Производство: США/Showtime Entertainment
    Жанр: драма
    Режиссер: Джеймс Фоули, Нил Бёргер, Скотт Хорнбэкер

    Актеры
    Дэмиэн Льюис, Пол Джаматти, Малин Акерман, Дэвид Костабайл, Дэниэл К. Исаак, Тоби Леонард Мур, Мэгги Сифф, Фрэнк Хартс и др.

    Описание

    В мире власти и сверхприбылей, в самом сердце Нью-Йорка, вовсю идет противостояние. Взрывоопасный вопрос, сказал кто то из толпы, к чему не понятно. Бобби Аксельрод – амбициозный король хедж-фондов, ведущий рискованные, но блестяще успешные финансовые дела. Самое интересное в это истории, что об этом Кравчук ничего не знал. Чак – принципиальный федеральный прокурор, который давно охотится за Бобби, но во вселенной больших денег совсем другие законы...

    Дата мировой премьеры: 17 января 2016
    Продолжительность: ~00: 59: 00 серия
    Качество видео: HDTVRip
    Перевод: Многоголосый закадровый, профессиональный -BaibaKo
    Автор перевода: Фиона Кудреватых
    Озвучка: Юлия Котурбаш, Дмитрий Глебов, Руслан Иванов и Андрей Корзаченко
    Внимание! Присутствует ненормативная лексика.
    Видео: XviD, 720x400 (16: 9), ~1500 kb/s
    Аудио Rus: MPEG Layer 3, 48, 0 kHz, 2 ch, 192 kb/s — многоголосый закадровый
    Аудио Eng: MPEG Layer 3, 48, 0 kHz, 2 ch, 192 kb/s — оригинал
    Общее
    Полное имя : D: Миллиарды (сезон любимого сериала 1) Billions (2016) HDTVRip - BaibaKoBillions.s01e01.HDTVRip.Rus.Eng.DV.BaibaKo.avi
    Формат : AVI
    Формат/Информация : Audio Video Interleave
    Размер файла : 806 Мбайт
    Продолжительность : 59 м.
    Общий поток : 1896 Кбит/сек
    Программа кодирования : VirtualDubModRus 1.5.10.2 (build 2542/release)
    Библиотека кодирования : VirtualDubMod build 2542/release
    Видео
    Идентификатор : 0
    Формат : MPEG-4 Visual
    Профиль формата : Advanced Simple@L5
    Параметр BVOP формата : 2
    Параметр QPel формата : Нет
    Параметр GMC формата : Без точки перехода
    Параметр матрицы формата : Default (H.263)
    Идентификатор кодека : XVID
    Идентификатор кодека/Подсказка : XviD
    Продолжительность : 59 м.
    Битрейт : 1498 Кбит/сек
    Ширина : 720 пикселей
    Высота : 400 пикселей
    Соотношение сторон : 16: 9
    Частота кадров : 23, 976 (24000/1001) кадра/сек
    Цветовое пространство : YUV
    Субдискретизация насыщенности : 4: 2: 0
    Битовая глубина : 8 бит
    Тип развёртки : Прогрессивная
    Метод сжатия : С потерями
    Бит/(Пиксели*Кадры) : 0.217
    Размер потока : 637 Мбайт (79%)
    Библиотека кодирования : XviD 65
    Аудио #1
    Идентификатор : 1
    Формат : MPEG Audio
    Версия формата : Version 1
    Профиль формата : Layer 3
    Режим : Joint stereo
    Расширение режима : MS Stereo
    Идентификатор кодека : 55
    Идентификатор кодека/Подсказка : MP3
    Продолжительность : 59 м.
    Вид битрейта : Постоянный
    Битрейт : 192 Кбит/сек
    Каналы : 2 канала
    Частота : 48, 0 КГц
    Метод сжатия : С потерями
    Задержка видео : 12 мс.
    Размер потока : 81, 6 Мбайт (10%)
    Выравнивание : Разделение по промежуткам
    Продолжительность промежутка : 42 мс. (1, 00 видеокадр)
    Время предзагрузки промежутка : 500 мс.
    Аудио #2
    Идентификатор : 2
    Формат : MPEG Audio
    Версия формата : Version 1
    Профиль формата : Layer 3
    Режим : Joint stereo
    Расширение режима : MS Stereo
    Идентификатор кодека : 55
    Идентификатор кодека/Подсказка : MP3
    Продолжительность : 59 м.
    Вид битрейта : Постоянный
    Битрейт : 192 Кбит/сек
    Каналы : 2 канала
    Частота : 48, 0 КГц
    Метод сжатия : С потерями
    Задержка видео : 12 мс.
    Размер потока : 81, 6 Мбайт (10%)
    Выравнивание : Разделение по промежуткам
    Продолжительность промежутка : 42 мс. (1, 00 видеокадр)
    Время предзагрузки промежутка : 500 мс.
    Библиотека кодирования : LAME3.99.5ЄЄЄЄЄЄi8мH


    Скриншоты для ознакомления




    Онлайн видео Миллиарды



    Миллиарды/Billions (2016) HDTVRip (сезон 1, серии 1-9 из 12) BaibaKo (обновляемая)
    загрузка...
    Рейтинг →
     (голосов: 1, оценка 4/5, голосовать можно 1 раз )

    Другие торренты по теме:

  • Миллиарды / Billions (2016) HDTVRip (сезон 1, серии 1 из 12) BaibaKo (обновляемая) скачать через торрент бесплатно
  • Миллиарды / Billions (2016) HDTVRip (сезон 1, серии 1 из 12) NewStudio (обновляемая)
  • Миллиарды / Billions (2016) HDTV [H.264 / 1080p-LQ] (сезон 1, серии 1-2 из 12) BaibaKo (обновляемая)
  • Миллиарды / Billions (2016) HDTV [H.264 / 720p-LQ] (сезон 1, серии 1-4 из 12) BaibaKo (обновляемая)
  • Миллиарды / Billions (2016) HDTVRip (сезон 1, серии 1-5 из 12) AlexFilm (обновляемая)
  • Миллиарды / Billions (2016) HDTV [H.264 / 720p] (сезон 1, серии 1-6 из 12) IdeaFilm (обновляемая)
  • Миллиарды / Billions (2016) HDTVRip [H.264] (сезон 1, серии 1-12 из 12) LostFilm [MP4|1280x720]
  • Миллиарды / Billions (2017) WEBRip (сезон 2, серии 1 из 12) Novamedia (обновляемая)


    • Комментарии (0):

      Информация

      Информация

        Посетители, находящиеся в группе Гости, не могут оставлять комментарии в данной новости.

        ↓ Меню




        ↓ Опрос

        Вы добавили сайт в закладки?
        Да
        Нет


        Top 10 за месяц (Фильмы)