.
Авторизация | Регистрация
Хочешь лучшие торренты? Добавь свой email!
Добавить

Торрент скачать бесплатно

» » Родня (1981) HDTVRip [H.264] торрент скачать бесплатно




    Родня (1981) HDTVRip [H.264] торрент скачать бесплатно

    Опубликовал: Админ | Дата: 31-03-2016, 04:00 | Просмотров: 37

    Производство: СССР, Киностудия Мосфильм
    Жанр: Мелодрама, Трагикомедия
    Режиссер: Никита Михалков

    Актеры
    Нонна Мордюкова, Светлана Крючкова, Андрей Петров, Иван Бортник, Юрий Богатырев, Федя Стуков, Всеволод Ларионов, Никита Михалков, Александр Адабашьян, Павел Лебешев, Лариса Кузнецова, Олег Меньшиков, Сергей Газаров, Владимир Хотиненко, Руслан Ахметов, Юрий Бабинцев, Валентина Березуцкая, Виктор Бутурлин, Эрика Джимпел, Анна Гуляренко, Юрий Гусев, Геннадий Иванов, Светлана Коновалова, Римма Маркова

    Описание

    Сельская женщина едет в областной центр навестить дочь Нину и внучку Иришку. Добрая и простодушная женщина никак не предполагала, в каком мире живут её самые дорогие и единственно близкие ей люди. Пытаясь разобраться с помощью своих деревенских представлений о жизни в сложных отношениях дочери с бывшим мужем, она приносит им и себе немало огорчений…

    Возраст: 0+ (для любой зрительской аудитории)
    Продолжительность: 01: 32: 26
    Качество видео: HDTVRip
    Видео: AVC/H.264, 800x600, ~2154 Kbps
    Аудио: AC3, 2 ch, 192 Kbps
    Язык субтитров: Русский, английский
    Вид субтитров: Вшитые, отключаемые
    Главы: есть
    Код:

    Общее
    Уникальный идентификатор : 215992248515121241452478728694337630371 (0xA27E980AF323C54F927EA4A5FBF7F0A3)
    Полное имя : D:Наши фильмыСоветские фильмыМордюкова Нонна ВикторовнаРодняРодня.1981.mkv
    Формат : Matroska
    Версия формата : Version 4/Version 2
    Размер файла : 1, 55 Гбайт
    Продолжительность : 1 ч. 32 м.
    Общий поток : 2393 Кбит/сек
    Название фильма : Release for Topmost
    Дата кодирования : UTC 2016-03-27 10:55:47
    Программа кодирования : mkvmerge v6.2.0 (\'Promised Land\') built on Apr 28 2013 12:22:01
    Библиотека кодирования : libebml v1.3.0 + libmatroska v1.4.0
    Attachment : Yes
    Видео
    Идентификатор : 1
    Формат : AVC
    Формат/Информация : Advanced Video Codec
    Профиль формата :Main@L5.1
    Параметр CABAC формата : Да
    Параметр ReFrames формата : 1 кадр
    Идентификатор кодека : V_MPEG4/ISO/AVC
    Продолжительность : 1 ч. 32 м.
    Битрейт : 2154 Кбит/сек
    Ширина : 800 пикселей
    Высота : 600 пикселей
    Соотношение сторон : 4:3
    Режим частоты кадров : Постоянный
    Частота кадров : 25, 000 кадров/сек
    Цветовое пространство : YUV
    Субдискретизация насыщенности : 4:2:0
    Битовая глубина : 8 бит
    Тип развёртки : Прогрессивная
    Бит/(Пиксели*Кадры) : 0.179
    Размер потока : 1, 39 Гбайт (90%)
    Заголовок : Родня.1981 (Release for Topmost)
    Язык : Russian
    Default : Да
    Forced : Нет
    Аудио
    Идентификатор : 2
    Формат : AC-3
    Формат/Информация : Audio Coding 3
    Расширение режима : CM (complete main)
    Параметр Endianness формата : Big
    Идентификатор кодека : A_AC3
    Продолжительность : 1 ч. 32 м.
    Вид битрейта : Постоянный
    Битрейт : 192 Кбит/сек
    Каналы : 2 канала
    Расположение каналов : Front: L R
    Частота : 48, 0 КГц
    Битовая глубина : 16 бит
    Метод сжатия : С потерями
    Размер потока : 127 Мбайт (8%)
    Заголовок : AC-3, 2.0ch, 192 Kbps
    Язык : Russian
    Default : Да
    Forced : Нет
    Текст #1
    Идентификатор : 3
    Формат : UTF-8
    Идентификатор кодека : S_TEXT/UTF8
    Идентификатор кодека/Информация : UTF-8 Plain Text
    Язык : Russian
    Default : Нет
    Forced : Нет
    Текст #2
    Идентификатор : 4
    Формат : UTF-8
    Идентификатор кодека : S_TEXT/UTF8
    Идентификатор кодека/Информация : UTF-8 Plain Text
    Язык : English
    Default : Нет
    Forced : Нет
    Меню
    00:00:00.000 : ru:Спальный вагон
    00:10:46.680 : ru:Мать и дочь
    00:17:07.960 : ru:Внучка
    00:25:50.960 : ru:Зять
    00:29:10.760 : ru:Гражданин с усами
    00:33:59.240 : ru:Ссора
    00:43:29.960 : ru:Ночлег
    00:49:14.200 : ru:Бывший муж
    01:04:39.160 : ru:В ресторане
    01:18:15.360 : ru:Ожидание
    01:23:42.080 : ru:Проводы в армию
    01:28:44.360 : ru:Финал. Титры


    Скриншоты для ознакомления




    Родня (1981) HDTVRip [H.264]
    загрузка...
    Рейтинг →
     (голосов: 1, оценка 4/5, голосовать можно 1 раз )

    Другие торренты по теме:

  • Родня (1981) DVDRip [H.264]
  • Чужая родня (1955) DVDRip скачать через торрент бесплатно
  • Осторожно, мошенники! Алчная родня (2015.01.27) SATRip скачать через торрент бесплатно
  • Михаил Стельмах | Большая родня (1975) [FB2]
  • Семейная группа Родня - Маленькое семейное чудо (1991) [MP3|320 Kbps] <Pop>
  • Родня (1981) HDRip [H.264]
  • Родня (1981) HDTV [H.264 / 1080i-LQ]
  • Чужая родня / Monsieur Batignole (2002) BDRemux [H.264 / 1080i]


    • Комментарии (0):

      Информация

      Информация

        Посетители, находящиеся в группе Гости, не могут оставлять комментарии в данной новости.

        ↓ Меню




        ↓ Опрос

        Вы добавили сайт в закладки?
        Да
        Нет


        Top 10 за месяц (Фильмы)