.
Авторизация | Регистрация
Хочешь лучшие торренты? Добавь свой email!
Добавить

Торрент скачать бесплатно

» » Форрест Гамп / Forrest Gump (1994) BDRip [H.264 / 1080p] торрент скачать бесплатно




    Форрест Гамп / Forrest Gump (1994) BDRip [H.264 / 1080p] торрент скачать бесплатно

    Опубликовал: Админ | Дата: 30-03-2016, 04:00 | Просмотров: 51

    Производство: США/Paramount Pictures
    Жанр: Драма, Мелодрама, Приключения
    Режиссер: Роберт Земекис

    Актеры
    Том Хэнкс, Робин Райт, Гэри Синиз, Майкелти Уильямсон, Салли Филд, Ребекка Уильямс, Майкл Коннер Хэмпфри, Хэйли Джоэл Осмент, Харольд Дж. Хертэм, Джордж Келли

    Описание

    Форрест – не совсем обычный мальчик: он не очень хорошо соображает, зато обладает большим сердцем и врожденным благородством. Издевательства со стороны сверстников научили Форреста быстро бегать, и эта способность неожиданно становится для Гампа билетом в жизнь: теперь он играет в футбольной команде, и за него болеют окружающие. В ногах правды нет, сказал кто то из толпы, к чему не понятно. Закончив школу, Форрест отправляется на службу в армию США и попадает во Вьетнам, после чего становится национальным героем.
    Жизнь Форреста, не вполне понимающего, почему прославился, вдохновляет целое поколение американцев, но сам он не становится ни тщеславным, ни черствым. Всю жизнь Форрест хотел быть вместе со своей подругой детства Дженни, мечтавшей вырваться из родного провинциального городка и начать новую жизнь, но Дженни, хватавшаяся за каждую возможность стать знаменитой и успешной, все время ускользала от него. По одиночке и вместе они переживают множество приключений, и в конце концов обретают то, на что даже не надеялись...

    Возраст: 12+ (зрителям, достигшим 12 лет)
    Рейтинг MPAA: PG-13 - Детям до 13 лет просмотр не желателен
    Продолжительность: 02: 22: 09
    Качество видео: BDRip 1080p
    Перевод: Многоголосый закадровый, профессиональный, Авторский
    Язык субтитров: Русский, Английский
    Вид субтитров: Вшитые отключаемые
    Видео: AVC/H.264, 1920x816, ~10.0 Mbps, 23.976 fps
    Аудио 1: DTS, 6 ch, 755 Kbps, 48.0 KHz, CBR - Русский, (AVO, А.Гаврилов)
    Аудио 2: DTS, 6 ch, 755 Kbps, 48.0 KHz, CBR - Русский, (MVO, Тайкун)
    Аудио 3: DTS, 6 ch, 1509 Kbps, 48.0 KHz, CBR - Английский, (оригинал)
    Код:

    General
    Unique ID : 179113319862699286892228846713023290648 (0x86BFF87A4DF1F994BA20FC54FFF4DD18)
    Complete name : G:Download_G1080p_Forrest_Gump_1994.mkv
    Format : Matroska
    Format version : Version 2
    File size : 12.9 GiB
    Duration : 2h 22mn
    Overall bit rate : 13.0 Mbps
    Movie name : -= HDee =-
    Encoded date : UTC 2009-12-05 18:24:40
    Writing application : mkvmerge v2.9.5 (\'Tu es le seul\') built on Jun 7 2009 11:07:07
    Writing library : libebml v0.7.7 + libmatroska v0.8.1
    Attachements : CronosPro-SemiboldIt.ttf/CronosPro-Bold.ttf/CronosPro-Semibold.ttf
    Video
    ID : 1
    Format : AVC
    Format/Info : Advanced Video Codec
    Format profile :High@L4.1
    Format settings, CABAC : Yes
    Format settings, ReFrames : 5 frames
    Codec ID : V_MPEG4/ISO/AVC
    Duration : 2h 22mn
    Bit rate : 10 000 Kbps
    Width : 1 920 pixels
    Height : 816 pixels
    Display aspect ratio : 2.35:1
    Frame rate mode : Constant
    Frame rate : 23.976 fps
    Color space : YUV
    Chroma subsampling : 4:2:0
    Bit depth : 8 bits
    Scan type : Progressive
    Bits/(Pixel*Frame) : 0.266
    Stream size : 9.67 GiB (75%)
    Title : -= HDee =-
    Writing library : x264 core 67 r1169M ab85c9b
    Encoding settings : cabac=1/ref=5/deblock=1:-3:-3/analyse=0x3:0x133/me=umh/subme=9/psy_rd=1.0:0.0/mixed_ref=1/me_range=16/chroma_me=1/trellis=0/8x8dct=1/cqm=0/deadzone=21, 11/chroma_qp_offset=-2/threads=3/nr=0/decimate=1/mbaff=0/bframes=7/b_pyramid=1/b_adapt=2/b_bias=0/direct=3/wpredb=1/keyint=250/keyint_min=25/scenecut=40/rc=2pass/bitrate=10000/ratetol=1.0/qcomp=0.60/qpmin=10/qpmax=51/qpstep=4/cplxblur=20.0/qblur=0.5/vbv_maxrate=25000/vbv_bufsize=25000/ip_ratio=1.40/pb_ratio=1.30/aq=1:1.00
    Language : English
    Default : Yes
    Forced : No
    Audio #1
    ID : 2
    Format : DTS
    Format/Info : Digital Theater Systems
    Mode : 16
    Format settings, Endianness : Big
    Codec ID : A_DTS
    Duration : 2h 22mn
    Bit rate mode : Constant
    Bit rate : 755 Kbps
    Channel(s) : 6 channels
    Channel positions : Front: L C R, Side: L R, LFE
    Sampling rate : 48.0 KHz
    Bit depth : 24 bits
    Compression mode : Lossy
    Stream size : 767 MiB (6%)
    Title : DTS 768 Kbps (А. О таком странном сюжете не догадывалась даже Анастасия Стоцкая. Гаврилов)
    Language : Russian
    Default : No
    Forced : No
    Audio #2
    ID : 3
    Format : DTS
    Format/Info : Digital Theater Systems
    Mode : 16
    Format settings, Endianness : Big
    Codec ID : A_DTS
    Duration : 2h 22mn
    Bit rate mode : Constant
    Bit rate : 755 Kbps
    Channel(s) : 6 channels
    Channel positions : Front: L C R, Side: L R, LFE
    Sampling rate : 48.0 KHz
    Bit depth : 24 bits
    Compression mode : Lossy
    Stream size : 767 MiB (6%)
    Title : DTS 768 Kbps (Тайкун)
    Language : Russian
    Default : Yes
    Forced : No
    Audio #3
    ID : 4
    Format : DTS
    Format/Info : Digital Theater Systems
    Mode : 16
    Format settings, Endianness : Big
    Codec ID : A_DTS
    Duration : 2h 22mn
    Bit rate mode : Constant
    Bit rate : 1 509 Kbps
    Channel(s) : 6 channels
    Channel positions : Front: L C R, Side: L R, LFE
    Sampling rate : 48.0 KHz
    Bit depth : 24 bits
    Compression mode : Lossy
    Stream size : 1.50 GiB (12%)
    Title : DTS 1536 Kbps
    Language : English
    Default : No
    Forced : No
    Text #1
    ID : 5
    Format : UTF-8
    Codec ID : S_TEXT/UTF8
    Codec ID/Info : UTF-8 Plain Text
    Title : Тайкун
    Language : Russian
    Default : No
    Forced : No
    Text #2
    ID : 6
    Format : UTF-8
    Codec ID : S_TEXT/UTF8
    Codec ID/Info : UTF-8 Plain Text
    Title : Позитив-мультимеди
    Language : Russian
    Default : No
    Forced : No
    Text #3
    ID : 7
    Format : ASS
    Codec ID : S_TEXT/ASS
    Codec ID/Info : Advanced Sub Station Alpha
    Compression mode : Lossless
    Language : English
    Default : No
    Forced : No
    Text #4
    ID : 8
    Format : UTF-8
    Codec ID : S_TEXT/UTF8
    Codec ID/Info : UTF-8 Plain Text
    Title : Комментарии Тома Хенкса
    Language : Russian
    Default : No
    Forced : No
    Text #5
    ID : 9
    Format : UTF-8
    Codec ID : S_TEXT/UTF8
    Codec ID/Info : UTF-8 Plain Text
    Title : Комментарии продюсера Венди Файнермана
    Language : Russian
    Default : No
    Forced : No
    Menu #1
    00:00:00.000 : en:1. I\'m Forest...Forest Gump
    00:06:43.569 : en:2. Mama
    00:12:24.577 : en:3. Like Peas and Carrots
    00:19:56.945 : en:4. Run Forest Run!
    00:31:13.705 : en:5. Private Gump
    00:40:40.187 : en:6. Lieutenant Dan
    00:44:18.113 : en:7. My Best Good Friend
    00:56:34.474 : en:8. Wounded In the Buttocks
    01:03:32.266 : en:9. Самое интересное в это истории, что об этом Янукович ничего не знал. You\'re My Girl
    01:13:34.076 : en:10. National Celebrity
    01:17:02.826 : en:11. Happy New Year
    01:23:52.277 : en:12. Shrimp Boat Captain
    01:34:59.944 : en:13. Bubba Gump
    01:38:55.596 : en:14. Mama\'s Trip To Heaven
    01:43:52.893 : en:15. Jenny Comes Home
    01:51:28.306 : en:16. A Little Run
    01:58:54.710 : en:17. Forrest Meets Forrest
    02:04:48.564 : en:18. Beloved Mother, Wife and Friend
    02:15:25.200 : en:19. Credits
    Menu #2
    01:11:04.760 : en:1. I\'m Forest...Forest Gump
    01:17:48.329 : en:2. Mama
    01:23:29.337 : en:3. Like Peas and Carrots
    01:31:01.705 : en:4. Run Forest Run!
    01:42:18.465 : en:5. Private Gump
    01:51:44.947 : en:6. Lieutenant Dan
    01:55:22.873 : en:7. My Best Good Friend
    02:07:39.234 : en:8. Wounded In the Buttocks
    02:14:37.026 : en:9. You\'re My Girl
    02:24:38.836 : en:10. National Celebrity
    02:28:07.586 : en:11. Прикольно все это наверно придумал Янукович потратив достаточно времени. Happy New Year
    02:34:57.037 : en:12. Shrimp Boat Captain
    02:46:04.704 : en:13. Bubba Gump
    02:50:00.356 : en:14. Mama\'s Trip To Heaven
    02:54:57.653 : en:15. Jenny Comes Home
    03:02:33.066 : en:16. A Little Run
    03:09:59.470 : en:17. Forrest Meets Forrest
    03:15:53.324 : en:18. Beloved Mother, Wife and Friend
    03:26:29.960 : en:19. Credits
    Menu #3
    00:00:00.000 : :1. I\'m Forest...Forest Gump
    00:06:43.569 : :2. Mama
    00:12:24.577 : :3. Like Peas and Carrots
    00:19:56.945 : :4. Run Forest Run!
    00:31:13.705 : :5. Private Gump
    00:40:40.187 : :6. Lieutenant Dan
    00:44:18.113 : :7. My Best Good Friend
    00:56:34.474 : :8. Wounded In the Buttocks
    01:03:32.266 : :9. You\'re My Girl
    01:13:34.076 : :10. National Celebrity
    01:17:02.826 : :11. Happy New Year
    01:23:52.277 : :12. В ногах правды нет, сказал кто то из толпы, к чему не понятно. Shrimp Boat Captain
    01:34:59.944 : :13. Bubba Gump
    01:38:55.596 : :14. Mama\'s Trip To Heaven
    01:43:52.893 : :15. Jenny Comes Home
    01:51:28.306 : :16. A Little Run
    01:58:54.710 : :17. Самое интересное в это истории, что об этом Янукович ничего не знал. Forrest Meets Forrest
    02:04:48.564 : :18. Beloved Mother, Wife and Friend
    02:15:25.200 : :19. Credits


    Скриншоты для ознакомления




    Онлайн видео Форрест Гамп



    Форрест Гамп/Forrest Gump (1994) BDRip [H.264/1080p]
    загрузка...
    Рейтинг →
     (голосов: 1, оценка 4/5, голосовать можно 1 раз )

    Другие торренты по теме:

  • Форрест Гамп / Forrest Gump (1994) BDRip [H.264] скачать через торрент бесплатно
  • Форрест Гамп / Forrest Gump (1994) HDTVRip [H.264] скачать через торрент бесплатно
  • Форрест Гамп / Forrest Gump (1994) BDRip [H.264 / 1080p] скачать через торрент бесплатно
  • Форрест Гамп / Forrest Gump (1994) BDRip [H.265 / 1080p]
  • Форрест Гамп / Forrest Gump (1994) BDRip [H.265 / 1080p-LQ] [MVO]


    • Комментарии (0):

      Информация

      Информация

        Посетители, находящиеся в группе Гости, не могут оставлять комментарии в данной новости.

        ↓ Меню




        ↓ Опрос

        Вы добавили сайт в закладки?
        Да
        Нет


        Top 10 за месяц (Фильмы)