.
Авторизация | Регистрация
Хочешь лучшие торренты? Добавь свой email!
Добавить

Торрент скачать бесплатно

» » Мент в законе - 9 (2014) SATRip (сезон 9, серия 1-2 из 44) (Обновляемая) торрент скачать бесплатно




    Мент в законе - 9 (2014) SATRip (сезон 9, серия 1-2 из 44) (Обновляемая) торрент скачать бесплатно

    Опубликовал: Админ | Дата: 28-03-2016, 04:00 | Просмотров: 76

    Производство: Россия/Центр кинопроизводства, Форвард фильм
    Жанр: Детектив
    Режиссер: Игорь Ромащенко, Николай Денисов

    Актеры
    Сергей Плотников, Михаил Бабичев, Антон Сёмкин, Сергей Пиотровский, Юлия Яблонская, Константин Глушков, Иван Соловьев, Дмитрий Блохин, Владислав Котлярский, Павел Мисаилов, Антон Ескин, Алексей Шемес, Валерий Зинов, Андрей Касницкий, Александр Штендлер, Дмитрий Савкин, Владимир Завикторин, Виктор Конухин, Поля Полякова, Юрий Соколов, Оксана Лунина, Ярослав Хорошков, Александр Сергеев

    Описание

    Несмотря на все старания Степана Кручи и его верных боевых товарищей преступность в Битово не хочет уступать свои позиции. Покой Степану только снится. Подполковнику предстоит столкнуться с доселе невиданными в его районе преступлениями и старыми заклятыми врагами. В Битовском районе переполох - все местные газеты и телевиденье кричат о благородном разбойнике, Робин Гуде местного разлива. Герой специализируется на убийстве и грабеже бизнесменов, чьи имена запятнаны грязными делишками. Похищенные у бизнесменов деньги и ценности он раздает на благотворительные нужды. Но Степан Круча повидал уже многое, чтобы поверить в эту сказку. Стараниями Кручи благородный разбойник показывает свое истинное лицо: его благородные цели - лишь прикрытие. Предстоит подполковнику свести счеты и с бандой автомошенников, перешедших последнюю черту закона - убито несколько владельцев машин. Да и заклятый враг Кручи - Сафон тоже не сидит сложа руки. Вызволив сына из тюрьмы, Сафон помогает Егору открыть свой бизнес. Только бизнес этот они ведут не по законам рынка, а по бандитским понятиям. Самое интересное в это истории, что об этом Обама ничего не знал. Но на каждую силу находится еще большая сила и новоявленный бизнесмен напрямую столкнется с акулами этого рынка, захватившими ключевые позиции еще в 90-х

    Дата премьеры в России: 26 марта 2016 года
    Продолжительность: ~ 00: 41: 00 серия
    Качество видео: SATRip
    Видео: XviD MPEG-4, 720x400, ~1800 Кбит/сек
    Аудио: МР3, 128 Кбит/сек, 2 канала, 48 kHz, CBR
    Код:

    General
    Complete name : D:Мент в законе 9 SatRipMent.v.zakone.9.01.SATRip.avi
    Format : AVI
    Format/Info : Audio Video Interleave
    File size : 582 MiB
    Duration : 41mn 28s
    Overall bit rate : 1 961 Kbps
    Writing application : VirtualDubMod 1.5.10.3 | (build 2550/release)
    Writing library : VirtualDubMod build 2550/release
    Video
    ID : 0
    Format : MPEG-4 Visual
    Format profile : Advanced Simple@L5
    Format settings, BVOP : 2
    Format settings, QPel : No
    Format settings, GMC : No warppoints
    Format settings, Matrix : Default (H.263)
    Codec ID : XVID
    Codec ID/Hint : XviD
    Duration : 41mn 28s
    Bit rate : 1 823 Kbps
    Width : 720 pixels
    Height : 400 pixels
    Display aspect ratio : 16:9
    Frame rate : 25.000 fps
    Color space : YUV
    Chroma subsampling : 4:2:0
    Bit depth : 8 bits
    Scan type : Progressive
    Compression mode : Lossy
    Bits/(Pixel*Frame) : 0.253
    Stream size : 541 MiB (93%)
    Writing library : XviD 1.2.1 (UTC 2008-12-04)
    Audio
    ID : 1
    Format : MPEG Audio
    Format version : Version 1
    Format profile : Layer 3
    Mode : Joint stereo
    Mode extension : MS Stereo
    Codec ID : 55
    Codec ID/Hint : MP3
    Duration : 41mn 28s
    Bit rate mode : Constant
    Bit rate : 128 Kbps
    Channel(s) : 2 channels
    Sampling rate : 48.0 KHz
    Compression mode : Lossy
    Stream size : 38.0 MiB (7%)
    Alignment : Aligned on interleaves
    Interleave, duration : 40 ms (1.00 video frame)
    Interleave, preload duratio : 504 ms
    Writing library : LAME3.99r
    Encoding settings : -m j -V 4 -q 9 -lowpass 17 -b 128


    Скриншоты для ознакомления




    Онлайн видео Мент в законе



    Мент в законе - 9 (2014) SATRip (сезон 9, серия 1-2 из 44) (Обновляемая)
    загрузка...
    Рейтинг →
     (голосов: 1, оценка 5/5, голосовать можно 1 раз )

    Другие торренты по теме:

  • Мент в законе - 9 (2014) HDTVRip (сезон 9, серия 1-4 из 44) (Обновляемая)
  • Мент в законе (2014) HDTVRip (сезон 9, серий 1-44 из 44)


    • Комментарии (0):

      Информация

      Информация

        Посетители, находящиеся в группе Гости, не могут оставлять комментарии в данной новости.

        ↓ Меню




        ↓ Опрос

        Вы добавили сайт в закладки?
        Да
        Нет


        Top 10 за месяц (Фильмы)