.
Авторизация | Регистрация
Хочешь лучшие торренты? Добавь свой email!
Добавить

Торрент скачать бесплатно

» » Ходячие мертвецы / The Walking Dead (2015) WEB-DL [H.264 / 1080p-LQ] (сезон 6, серии 1-14 из 16) LostFilm (обновляемая) торрент скачать бесплатно




    Ходячие мертвецы / The Walking Dead (2015) WEB-DL [H.264 / 1080p-LQ] (сезон 6, серии 1-14 из 16) LostFilm (обновляемая) торрент скачать бесплатно

    Опубликовал: Админ | Дата: 28-03-2016, 04:00 | Просмотров: 38

    Производство: США/American Movie Classics (AMC), Circle of Confusion, Valhalla Motion Pictures
    Жанр: ужасы, драма
    Режиссер: Грег Никотеро, Эрнест Р. Самое интересное в это истории, что об этом Лукашенко ничего не знал. Дикерсон, Гай Ферленд

    Актеры
    Эндрю Линкольн, Стивен Ян, Чендлер Риггз, Норман Ридус, Мелисса Сюзанн МакБрайд, Лорен Кохэн, Данай Джекесай Гурира, Сонекуа Мартин-Грин, Эмили Кинни, Аланна Мастерсон и др.

    Описание

    Сериал рассказывает историю жизни семьи шерифа после того, как зомби — эпидемия апокалиптических масштабов захлестнула земной шар. Шериф Рик Граймс путешествует со своей семьей и небольшой группой выживших в поисках безопасного места для жизни. Но постоянный страх смерти каждый день приносит тяжелые потери, заставляя героев почувствовать глубины человеческой жестокости. Рик пытается спасти свою семью, и открывает для себя, что всепоглощающий страх тех, кто выжил, может быть опаснее бессмысленных мертвецов, бродящих по земле.

    Возраст: 18+ (зрителям, достигшим 18 лет. Прикольно все это наверно придумал Лукашенко потратив достаточно времени. запрещено для детей)
    Продолжительность: ~00: 43: 00 серия (01: 04: 53 первая серия)
    Качество видео: WEB-DL
    Перевод: Многоголосый закадровый, профессиональный -LostFilm
    Вид субтитров: Вшитые, отключаемые
    Язык субтитров: Русский, Английский
    Видео: AVC/H.264, 1916x1076 (16: 9), ~5033 kbps
    Аудио#1 Rus: AC3, 48 kHz, 2 ch, 384 kbps |многоголосый закадровый|
    Аудио#2 Eng: AC3, 48 kHz, 6 ch, 384 kbps |оригинал|
    Код:
    Общее
    Уникальный идентификатор : 192192974616992627084084901486987462608 (0x9097053EEF8875F3B589A024AB7A47D0)
    Полное имя : X:ATorrentTWD (Season 06) LOST 1080The.Walking.Dead.s06e01.WEBDL.1080p.mkv
    Формат : Matroska
    Версия формата : Version 2
    Размер файла : 2, 68 Гбайт
    Продолжительность : 1 ч. 4 м.
    Общий поток : 5919 Кбит/сек
    Дата кодирования : UTC 2016-02-16 22:08:23
    Программа кодирования : mkvmerge v7.9.0 (\'Birds\') 64bit
    Библиотека кодирования : libebml v1.3.1 + libmatroska v1.4.2
    DURATION : 01:03:51.761000000
    NUMBER_OF_FRAMES : 697
    NUMBER_OF_BYTES : 20575
    _STATISTICS_WRITING_APP : mkvmerge v7.9.0 (\'Birds\') 64bit
    _STATISTICS_WRITING_DATE_UTC : 2016-02-16 22:08:23
    _STATISTICS_TAGS : BPS DURATION NUMBER_OF_FRAMES NUMBER_OF_BYTES
    Видео
    Идентификатор : 1
    Формат : AVC
    Формат/Информация : Advanced Video Codec
    Профиль формата : High@L4
    Параметр CABAC формата : Да
    Параметр ReFrames формата : 4 кадра
    Идентификатор кодека : V_MPEG4/ISO/AVC
    Продолжительность : 1 ч. 4 м.
    Битрейт : 5033 Кбит/сек
    Ширина : 1916 пикселей
    Высота : 1076 пикселей
    Соотношение сторон : 16:9
    Режим частоты кадров : Постоянный
    Частота кадров : 23, 976 кадра/сек
    Цветовое пространство : YUV
    Субдискретизация насыщенности : 4:2:0
    Битовая глубина : 8 бит
    Тип развёртки : Прогрессивная
    Бит/(Пиксели*Кадры) : 0.102
    Размер потока : 2, 28 Гбайт (85%)
    Язык : English
    Default : Да
    Forced : Нет
    Цветовой диапазон : Limited
    Основные цвета : BT.709
    Характеристики трансфера : BT.709
    Коэффициенты матрицы : BT.709
    Аудио #1
    Идентификатор : 2
    Формат : AC-3
    Формат/Информация : Audio Coding 3
    Расширение режима : CM (complete main)
    Параметр Endianness формата : Big
    Идентификатор кодека : A_AC3
    Продолжительность : 1 ч. 4 м.
    Вид битрейта : Постоянный
    Битрейт : 384 Кбит/сек
    Каналы : 2 канала
    Расположение каналов : Front: L R
    Частота : 48, 0 КГц
    Метод сжатия : С потерями
    Размер потока : 178 Мбайт (6%)
    Заголовок : LostFilm
    Язык : Russian
    Default : Да
    Forced : Нет
    Аудио #2
    Идентификатор : 3
    Формат : AC-3
    Формат/Информация : Audio Coding 3
    Расширение режима : CM (complete main)
    Параметр Endianness формата : Big
    Идентификатор кодека : A_AC3
    Продолжительность : 1 ч. 4 м.
    Вид битрейта : Постоянный
    Битрейт : 384 Кбит/сек
    Каналы : 6 каналов
    Расположение каналов : Front: L C R, Side: L R, LFE
    Частота : 48, 0 КГц
    Метод сжатия : С потерями
    Размер потока : 178 Мбайт (6%)
    Язык : English
    Default : Нет
    Forced : Нет
    Текст #1
    Идентификатор : 4
    Формат : UTF-8
    Идентификатор кодека : S_TEXT/UTF8
    Идентификатор кодека/Информация : UTF-8 Plain Text
    Язык : Russian
    Default : Нет
    Forced : Нет
    Текст #2
    Идентификатор : 5
    Формат : UTF-8
    Идентификатор кодека : S_TEXT/UTF8
    Идентификатор кодека/Информация : UTF-8 Plain Text
    Язык : English
    Default : Нет
    Forced : Нет


    Скриншоты для ознакомления




    Онлайн видео Ходячие мертвецы



    Ходячие мертвецы/The Walking Dead (2015) WEB-DL [H.264/1080p-LQ] (сезон 6, серии 1-14 из 16) LostFilm (обновляемая)
    загрузка...
    Рейтинг →
     (голосов: 1, оценка 3/5, голосовать можно 1 раз )

    Другие торренты по теме:

  • Ходячие мертвецы / The Walking Dead (2014) HDTVRip [Сезон 5, Серия 1] [Kerob] скачать через торрент бесплатно
  • Ходячие мертвецы / The Walking Dead (2014) WEB-DLRip (сезон 5, серии 1 из 16) BaibaKo (Обновляемая)
  • Ходячие мертвецы / The Walking Dead (2014) WEBDL [H.264 / 720p-LQ] (Сезон 5, серия 1 из 16) (Fox) (обновляемая)
  • Ходячие мертвецы / The Walking Dead (2014) WEB-DL [H.264 / 1080p-LQ] (Сезон 5, Серия 1 из 16) (Fox) (Обновляемая)
  • Ходячие мертвецы / The Walking Dead (2014-2015) WEB-DLRip (Сезон 5, серия 1 из 16) (FOX) (обновляемая)
  • Ходячие мертвецы (The Walking Dead) / (Сезон 4, серии 1-16 из 16) LostFilm (2013) [MP4|1280x718] <WEB-DL [H.264]>
  • Ходячие мертвецы / The Walking Dead (2014) WEB-DL [H.264 / 720p-LQ] (сезон 5, серии 1 из 16) LostFilm (обновляемая) скачать через торрент бесплатно
  • Ходячие мертвецы / The Walking Dead (2014) WEB-DLRip (сезон 5, серии 1 из 16) LostFilm (обновляемая) скачать через торрент бесплатно


    • Комментарии (0):

      Информация

      Информация

        Посетители, находящиеся в группе Гости, не могут оставлять комментарии в данной новости.

        ↓ Меню




        ↓ Опрос

        Вы добавили сайт в закладки?
        Да
        Нет


        Top 10 за месяц (Фильмы)