.
Авторизация | Регистрация
Хочешь лучшие торренты? Добавь свой email!
Добавить

Торрент скачать бесплатно

» » Счастливчик Стэна Ли / Stan Lees Lucky Man (2016) HDTVRip [H.264 / 720p-LQ] (сезон 1, серии 1-9 из 10) OMSKBIRD (обновляемая) торрент скачать бесплатно




    Счастливчик Стэна Ли / Stan Lees Lucky Man (2016) HDTVRip [H.264 / 720p-LQ] (сезон 1, серии 1-9 из 10) OMSKBIRD (обновляемая) торрент скачать бесплатно

    Опубликовал: Админ | Дата: 27-03-2016, 04:01 | Просмотров: 28

    Производство: Великобритания/Carnival Films
    Жанр: Фантастика, боевик
    Режиссер: Джон Ист, Брайан Келли

    Актеры
    Джеймс Несбитт, Стефен Хэйгэн, Джозеф Гатт, Лиза Диллон, Ли Николас Харрис, Мэтт Таунсенд, Эндрю Ли Поттс, Пол Блэкуэлл, Гарри Марриотт, Лаура Свифт и др.

    Описание

    Действие сериала будет происходить в Лондоне. О таком странном сюжете не догадывалась даже Настя Каменских. Главный герой – полицейский, чей главный минус – пристрастие к азартным играм. До добра это не довело – во-первых, его оставили жена с ребенком, во-вторых, у героя образовался солидный долг перед мафией. Как жить дальше? Ответ подсказывает некий волшебный браслет, который коп случайно находит…

    Дата мировой премьеры: 22.02.2016
    Продолжительность: ~44 мин. серия
    Качество видео: HDTVRip 720p
    Перевод: Многоголосый закадровый, профессиональный | OMSKBIRD
    Реклама: присутствуют аудио вставки рекламы.
    Видео: AVC/x264, 1280x720, ~2500 kbps
    Аудио # 1 Rus: AC-3, 2 ch, 192 kbps, CBR - многоголосый закадровый
    Аудио # 2 Eng: AC-3, 6 ch, 384 kbps, CBR - оригинал
    Код:

    General
    Unique ID : 179366638030234554517568477058668131778 (0x86F0C20716729BABB4565084261375C2)
    Complete name : F:Мои ДокументыВидеоРАЗДАЧИСчастливчик Стэна ЛиStan Lee\'s Lucky Man S01 HDTVrip 720p (OMSKBIRD)Stan Lee\'s Lucky Man S01E01 HDTVrip 720p (OMSKBIRD).mkv
    Format : Matroska
    Format version : Version 2
    File size : 1.11 GiB
    Duration : 43mn 49s
    Overall bit rate : 3 614 Kbps
    Encoded date : UTC 2016-03-25 11:21:31
    Writing application : mkvmerge v4.0.0 (\'The Stars were mine\') сборка от Jun 6 2010 16:18:42
    Writing library : libebml v1.0.0 + libmatroska v1.0.0
    Video
    ID : 1
    Format : AVC
    Format/Info : Advanced Video Codec
    Format profile :High@L4.1
    Format settings, CABAC : Yes
    Format settings, ReFrames : 5 frames
    Codec ID : V_MPEG4/ISO/AVC
    Duration : 43mn 49s
    Bit rate : 2 966 Kbps
    Width : 1 280 pixels
    Height : 720 pixels
    Display aspect ratio : 16:9
    Frame rate : 25.000 fps
    Color space : YUV
    Chroma subsampling : 4:2:0
    Bit depth : 8 bits
    Scan type : Progressive
    Bits/(Pixel*Frame) : 0.129
    Stream size : 930 MiB (82%)
    Writing library : x264 core 148 r2665 a01e339
    Encoding settings : cabac=1/ref=5/deblock=1:0:0/analyse=0x3:0x113/me=umh/subme=8/psy=1/psy_rd=1.00:0.00/mixed_ref=1/me_range=16/chroma_me=1/trellis=1/8x8dct=1/cqm=0/deadzone=21, 11/fast_pskip=1/chroma_qp_offset=-2/threads=12/lookahead_threads=2/sliced_threads=0/nr=0/decimate=1/interlaced=0/bluray_compat=0/constrained_intra=0/bframes=3/b_pyramid=2/b_adapt=2/b_bias=0/direct=3/weightb=1/open_gop=0/weightp=2/keyint=250/keyint_min=25/scenecut=40/intra_refresh=0/rc_lookahead=50/rc=crf/mbtree=1/crf=18.0/qcomp=0.60/qpmin=0/qpmax=69/qpstep=4/ip_ratio=1.40/aq=1:1.00
    Language : English
    Default : Yes
    Forced : No
    Matrix coefficients : BT.709-5, BT.1361, IEC 61966-2-4 709, SMPTE RP177
    Audio #1
    ID : 2
    Format : AC-3
    Format/Info : Audio Coding 3
    Mode extension : CM (complete main)
    Format settings, Endianness : Big
    Codec ID : A_AC3
    Duration : 43mn 49s
    Bit rate mode : Constant
    Bit rate : 192 Kbps
    Channel(s) : 2 channels
    Channel positions : Front: L R
    Sampling rate : 48.0 KHz
    Bit depth : 16 bits
    Compression mode : Lossy
    Stream size : 60.2 MiB (5%)
    Language : Russian
    Default : Yes
    Forced : No
    Audio #2
    ID : 3
    Format : AC-3
    Format/Info : Audio Coding 3
    Mode extension : CM (complete main)
    Format settings, Endianness : Big
    Codec ID : A_AC3
    Duration : 43mn 49s
    Bit rate mode : Constant
    Bit rate : 384 Kbps
    Channel(s) : 6 channels
    Channel positions : Front: L C R, Side: L R, LFE
    Sampling rate : 48.0 KHz
    Bit depth : 16 bits
    Compression mode : Lossy
    Stream size : 120 MiB (11%)
    Language : English
    Default : No
    Forced : No


    Скриншоты для ознакомления




    Онлайн видео Счастливчик Стэна Ли



    Счастливчик Стэна Ли/Stan Lees Lucky Man (2016) HDTVRip [H.264/720p-LQ] (сезон 1, серии 1-9 из 10) OMSKBIRD (обновляемая)
    загрузка...
    Рейтинг →
     (голосов: 1, оценка 3/5, голосовать можно 1 раз )

    Другие торренты по теме:

  • Счастливчик Стэна Ли / Stan Lees Lucky Man (2016) HDTVrip (сезон 1, серии 1-9 из 10) OMSKBIRD (обновляемая)
  • Счастливчик Стэна Ли / Stan Lees Lucky Man (2017) HDTVRip [H.264 / 1080p-LQ] (сезон 2, серии 1-2 из 10) OMSKBIRD (обновляемая)


    • Комментарии (0):

      Информация

      Информация

        Посетители, находящиеся в группе Гости, не могут оставлять комментарии в данной новости.

        ↓ Меню




        ↓ Опрос

        Вы добавили сайт в закладки?
        Да
        Нет


        Top 10 за месяц (Фильмы)