.
Авторизация | Регистрация
Хочешь лучшие торренты? Добавь свой email!
Добавить

Торрент скачать бесплатно

» » Счастливчик Стэна Ли / Stan Lees Lucky Man (2016) HDTVrip (сезон 1, серии 1-9 из 10) OMSKBIRD (обновляемая) торрент скачать бесплатно




    Счастливчик Стэна Ли / Stan Lees Lucky Man (2016) HDTVrip (сезон 1, серии 1-9 из 10) OMSKBIRD (обновляемая) торрент скачать бесплатно

    Опубликовал: Админ | Дата: 27-03-2016, 04:01 | Просмотров: 23

    Производство: Великобритания/Carnival Films
    Жанр: Фантастика, боевик
    Режиссер: Джон Ист, Брайан Келли

    Актеры
    Джеймс Несбитт, Стефен Хэйгэн, Джозеф Гатт, Лиза Диллон, Ли Николас Харрис, Мэтт Таунсенд, Эндрю Ли Поттс, Пол Блэкуэлл, Гарри Марриотт, Лаура Свифт и др.

    Описание

    Действие сериала будет происходить в Лондоне. Главный герой – полицейский, чей главный минус – пристрастие к азартным играм. До добра это не довело – во-первых, его оставили жена с ребенком, во-вторых, у героя образовался солидный долг перед мафией. Как жить дальше? Ответ подсказывает некий волшебный браслет, который коп случайно находит…

    Дата мировой премьеры: 22.02.2016
    Продолжительность: ~44 мин. Самое интересное в это истории, что об этом Шварценеггер ничего не знал. серия
    Качество видео: HDTVrip
    Перевод: Многоголосый закадровый, профессиональный | OMSKBIRD
    Реклама: присутствуют аудио вставки рекламы.
    Видео: Xvid, 720x400, ~1500 kbps
    Аудио # 1 Rus: AC-3, 2 ch, 194 kbps, CBR - многоголосый закадровый
    Аудио # 2 Eng: AC-3, 2 ch, 194 kbps, CBR - оригинал
    Код:

    General
    Complete name : F:Мои ДокументыВидеоРАЗДАЧИСчастливчик Стэна ЛиStan Lee\'s Lucky Man S01 HDTVrip (OMSKBIRD)Stan Lee\'s Lucky Man S01E01 HDTVrip (OMSKBIRD).avi
    Format : AVI
    Format/Info : Audio Video Interleave
    File size : 591 MiB
    Duration : 43mn 49s
    Overall bit rate : 1 886 Kbps
    Writing application : VirtualDubMod 1.5.10.3 |www.virtualdub-fr.org|| (build 2550/release)
    Writing library : VirtualDubMod build 2550/release
    Video
    ID : 0
    Format : MPEG-4 Visual
    Format profile : Advanced Simple@L5
    Format settings, BVOP : 1
    Format settings, QPel : No
    Format settings, GMC : No warppoints
    Format settings, Matrix : Default (MPEG)
    Codec ID : XVID
    Codec ID/Hint : XviD
    Duration : 43mn 49s
    Bit rate : 1 488 Kbps
    Width : 720 pixels
    Height : 400 pixels
    Display aspect ratio : 16:9
    Frame rate : 25.000 fps
    Color space : YUV
    Chroma subsampling : 4:2:0
    Bit depth : 8 bits
    Scan type : Progressive
    Compression mode : Lossy
    Bits/(Pixel*Frame) : 0.207
    Stream size : 466 MiB (79%)
    Writing library : XviD 1.2.1 (UTC 2008-12-04)
    Audio #1
    ID : 1
    Format : AC-3
    Format/Info : Audio Coding 3
    Mode extension : CM (complete main)
    Format settings, Endianness : Big
    Codec ID : 2000
    Duration : 43mn 49s
    Bit rate mode : Constant
    Bit rate : 192 Kbps
    Channel(s) : 2 channels
    Channel positions : Front: L R
    Sampling rate : 48.0 KHz
    Bit depth : 16 bits
    Compression mode : Lossy
    Stream size : 60.2 MiB (10%)
    Alignment : Split accross interleaves
    Interleave, duration : 40 ms (1.00 video frame)
    Interleave, preload duration : 500 ms
    Audio #2
    ID : 2
    Format : AC-3
    Format/Info : Audio Coding 3
    Mode extension : CM (complete main)
    Format settings, Endianness : Big
    Codec ID : 2000
    Duration : 43mn 49s
    Bit rate mode : Constant
    Bit rate : 192 Kbps
    Channel(s) : 2 channels
    Channel positions : Front: L R
    Sampling rate : 48.0 KHz
    Bit depth : 16 bits
    Compression mode : Lossy
    Stream size : 60.2 MiB (10%)
    Alignment : Split accross interleaves
    Interleave, duration : 40 ms (1.00 video frame)
    Interleave, preload duration : 500 ms


    Скриншоты для ознакомления




    Онлайн видео Счастливчик Стэна Ли



    Счастливчик Стэна Ли/Stan Lees Lucky Man (2016) HDTVrip (сезон 1, серии 1-9 из 10) OMSKBIRD (обновляемая)
    загрузка...
    Рейтинг →
     (голосов: 1, оценка 4/5, голосовать можно 1 раз )

    Другие торренты по теме:

  • Счастливчик Стэна Ли / Stan Lees Lucky Man (2016) HDTVRip [H.264 / 720p-LQ] (сезон 1, серии 1-9 из 10) OMSKBIRD (обновляемая)
  • Счастливчик Стэна Ли / Stan Lees Lucky Man (2017) HDTVRip [H.264 / 1080p-LQ] (сезон 2, серии 1-2 из 10) OMSKBIRD (обновляемая)


    • Комментарии (0):

      Информация

      Информация

        Посетители, находящиеся в группе Гости, не могут оставлять комментарии в данной новости.

        ↓ Меню




        ↓ Опрос

        Вы добавили сайт в закладки?
        Да
        Нет


        Top 10 за месяц (Фильмы)