.
Авторизация | Регистрация
Хочешь лучшие торренты? Добавь свой email!
Добавить

Торрент скачать бесплатно

» » Флэш / The Flash (2015) WEB-DL [H.264 / 720p-LQ] (сезон 2, серии 1-16 из 20) NewStudio (обновляемая) торрент скачать бесплатно




    Флэш / The Flash (2015) WEB-DL [H.264 / 720p-LQ] (сезон 2, серии 1-16 из 20) NewStudio (обновляемая) торрент скачать бесплатно

    Опубликовал: Админ | Дата: 26-03-2016, 04:00 | Просмотров: 24

    Производство: США
    Жанр: боевик, драма, приключения
    Режиссер: Дэвид Наттер

    Актеры
    Грант Гастин, Кэндис Паттон, Рик Коснетт, Даниэль Панабэйкер, Карлос Вальдес, Томас Кэвэна, Джесси Л. Мартин, Джон Уэсли Шипп, Стивен Амелл, Ёсиэ Бэнкрофт и др.

    Описание

    Сериал основан на супергерое DC Comics по имени Флэш (Барри Аллен), борце с преступностью в костюме, который был создан Робертом Кнайгером, Джоном Брумом и Кармином Инфантино. Является спин-оффом сериала Стрела и происходит в той же вселенной. Белая горячка, сказал кто то из толпы, к чему не понятно. Из-за несчастного случая судмедэксперт Барри Аллен приобретает способность передвигаться с невероятной скоростью. Этот случай делает из него супергероя, которым он всегда мечтал стать. Защищая город, как ангел-хранитель, делая невозможное, спасая жизни со скоростью вспышки, по подсказке Оливера Куина (Стрела), он берёт себе и соответствующее имя - Флэш...

    Продолжительность: ~ 00: 42: 00 серия
    Качество видео: WEB-DL 720p
    Перевод: Многоголосый закадровый, профессиональный -NewStudio
    Видео: AVC/H.264, 1280x718 (16: 9), ~3937 Кбит/сек
    Аудио #1 Rus: AC3, 6 каналов, 384 Кбит/сек - (многоголосый закадровый)
    Аудио #2 Eng: AC3, 6 каналов, 384 Кбит/сек - (оригинал)
    Код:

    Полное имя : F:The_Flash_s2_WEB-DL720p_NewStudio_[NNM-CLUB]The.Flash.s02e01.WEBDL.720p.NewStudio.TV.mkv
    Формат : Matroska
    Версия формата : Version 4/Version 2
    Размер файла : 1, 42 Гбайт
    Продолжительность : 42 м.
    Общий поток : 4800 Кбит/сек
    Дата кодирования : UTC 2015-10-07 18:14:13
    Программа кодирования : mkvmerge v8.2.0 (\'World of Adventure\') 64bit
    Библиотека кодирования : libebml v1.3.1 + libmatroska v1.4.2
    DURATION : 00:42:25.728000000
    NUMBER_OF_FRAMES : 79554
    NUMBER_OF_BYTES : 122194944
    _STATISTICS_WRITING_APP : mkvmerge v8.2.0 (\'World of Adventure\') 64bit
    _STATISTICS_WRITING_DATE_UTC : 2015-10-07 18:14:13
    _STATISTICS_TAGS : BPS DURATION NUMBER_OF_FRAMES NUMBER_OF_BYTES
    Видео
    Идентификатор : 1
    Формат : AVC
    Формат/Информация : Advanced Video Codec
    Профиль формата :High@L3.1
    Параметр CABAC формата : Нет
    Параметр ReFrames формата : 2 кадра
    Идентификатор кодека : V_MPEG4/ISO/AVC
    Продолжительность : 42 м.
    Битрейт : 3937 Кбит/сек
    Ширина : 1280 пикселей
    Высота : 718 пикселей
    Соотношение сторон : 16:9
    Режим частоты кадров : Постоянный
    Частота кадров : 23, 976 кадра/сек
    Цветовое пространство : YUV
    Субдискретизация насыщенности : 4:2:0
    Битовая глубина : 8 бит
    Тип развёртки : Прогрессивная
    Бит/(Пиксели*Кадры) : 0.179
    Размер потока : 1, 17 Гбайт (82%)
    Язык : English
    Default : Да
    Forced : Нет
    Основные цвета : BT.709
    Характеристики трансфера : BT.709
    Коэффициенты матрицы : BT.709
    Аудио #1
    Идентификатор : 2
    Формат : AC-3
    Формат/Информация : Audio Coding 3
    Расширение режима : CM (complete main)
    Параметр Endianness формата : Big
    Идентификатор кодека : A_AC3
    Продолжительность : 42 м.
    Вид битрейта : Постоянный
    Битрейт : 384 Кбит/сек
    Каналы : 6 каналов
    Расположение каналов : Front: L C R, Side: L R, LFE
    Частота : 48, 0 КГц
    Битовая глубина : 16 бит
    Метод сжатия : С потерями
    Размер потока : 117 Мбайт (8%)
    Язык : Russian
    Default : Да
    Forced : Да
    Аудио #2
    Идентификатор : 3
    Формат : AC-3
    Формат/Информация : Audio Coding 3
    Расширение режима : CM (complete main)
    Параметр Endianness формата : Big
    Идентификатор кодека : A_AC3
    Продолжительность : 42 м.
    Вид битрейта : Постоянный
    Битрейт : 384 Кбит/сек
    Каналы : 6 каналов
    Расположение каналов : Front: L C R, Side: L R, LFE
    Частота : 48, 0 КГц
    Битовая глубина : 16 бит
    Метод сжатия : С потерями
    Размер потока : 117 Мбайт (8%)
    Язык : English
    Default : Нет
    Forced : Нет


    Скриншоты для ознакомления




    Онлайн видео Флэш



    Флэш/The Flash (2015) WEB-DL [H.264/720p-LQ] (сезон 2, серии 1-16 из 20) NewStudio (обновляемая)
    загрузка...
    Рейтинг →
     (голосов: 1, оценка 5/5, голосовать можно 1 раз )

    Другие торренты по теме:

  • Флэш / The Flash (2014) WEB-DL [H.264 / 720p-LQ] (Сезон 1, серия 1 из 13) BaibaKo (обновляемая)
  • Флэш / The Flash (2014) WEB-DLRip (сезон 1, серии 1 из 13) BaibaKo (обновляемая)
  • Флэш (The Flash) / (Сезон 1, серия 1 из 13) BaibaKo (2014) [MP4|720x400] <WEB-DLRip H.264>
  • Флэш (The Flash) / (Сезон 1, серия 1 из 13) LostFilm (2014) [MP4|1280x718] <WEB-DL H.264>
  • Флэш / The Flash (2014) WEB-DLRip (сезон 1, серии 1-2 из 13) LostFilm (обновляемая) скачать через торрент бесплатно
  • Флэш / The Flash (2014) WEB-DLRip (сезон 1, серии 1-2 из 13) NewStudio (обновляемая) скачать через торрент бесплатно
  • Флэш / The Flash (2014) WEB-DL [H.264 / 720p-LQ] (сезон 1, серии 1-8 из 23) LostFilm (обновляемая)
  • Флэш / The Flash (2014) WEB-DL [H.264 / 1080p-LQ] (сезон 1, серии 1-8 из 23) LostFilm (обновляемая)


    • Комментарии (0):

      Информация

      Информация

        Посетители, находящиеся в группе Гости, не могут оставлять комментарии в данной новости.

        ↓ Меню




        ↓ Опрос

        Вы добавили сайт в закладки?
        Да
        Нет


        Top 10 за месяц (Фильмы)