.
Авторизация | Регистрация
Хочешь лучшие торренты? Добавь свой email!
Добавить

Торрент скачать бесплатно

» » Флэш / The Flash (2015) WEB-DL [H.264 / 1080p-LQ] (сезон 2, серии 1-16 из 20) NewStudio (обновляемая) торрент скачать бесплатно




    Флэш / The Flash (2015) WEB-DL [H.264 / 1080p-LQ] (сезон 2, серии 1-16 из 20) NewStudio (обновляемая) торрент скачать бесплатно

    Опубликовал: Админ | Дата: 26-03-2016, 04:00 | Просмотров: 30

    Производство: США/Berlanti Productions, DC Entertainment, Warner Bros. Television
    Жанр: боевик, драма, приключения
    Режиссер: Дермотт Даунс, Ральф Хемекер, Глен Винтер

    Актеры
    Грант Гастин, Кэндис Паттон, Даниэль Панабэйкер, Карлос Валдес, Томас Кэвэна, Джесси Л. Мартин, Малез Джоу, Демор Барнс, Вайолетт Бин и др.

    Описание

    Когда Барри Аллен был маленьким, больше всего на свете ему хотелось быть супергероем — тем, кто превосходит лимиты человеческого организма и как правило использует во благо данную ему силу. Самое интересное в это истории, что об этом Басков ничего не знал. Когда Барри было одиннадцать лет, он на собственном опыте узнал, что люди с необычными способностями действительно существуют: его мать была убита одним из таких людей. Повзрослев и став судмедэкспертом, Барри не отбросил мыслей о сверхлюдях и продолжал искать доказательства их существования, что не лучшим образом сказывалось на его репутации и общении с коллегами. Впрочем, однажды его усилия были вознаграждены…

    Продолжительность: ~00: 42: 00 серия
    Качество видео: WEB-DL
    Перевод: Многоголосый закадровый, профессиональный -NewStudio
    Автор перевода: Александра Цернант
    Реклама: присутствуют видео, аудио вставки рекламы.
    Видео: AVC/H.264, 1916x1076 (16: 9), ~4948 Kbps
    Аудио Rus: AC3, 48KHz, 6 ch, 384 Kbps, CBR - многоголосый закадровый
    Аудио Eng: AC3, 48KHz, 6 ch, 384 Kbps, CBR - оригинал
    Код:

    General
    Unique ID : 198095939969788216967875340616340142623 (0x9507E3E8671D37458A094084BC28FA1F)
    Complete name : D:The.Flash.s02.WEBDL.1080p.NewStudio.TVThe.Flash.s02e01.WEBDL.1080p.NewStudio.TV.mkv
    Format : Matroska
    Format version : Version 4/Version 2
    File size : 1.73 GiB
    Duration : 42mn 25s
    Overall bit rate : 5 832 Kbps
    Encoded date : UTC 2015-10-07 18:15:52
    Writing application : mkvmerge v8.2.0 (\'World of Adventure\') 64bit
    Writing library : libebml v1.3.1 + libmatroska v1.4.2
    DURATION : 00:42:25.728000000
    NUMBER_OF_FRAMES : 79554
    NUMBER_OF_BYTES : 122194944
    _STATISTICS_WRITING_APP : mkvmerge v8.2.0 (\'World of Adventure\') 64bit
    _STATISTICS_WRITING_DATE_UTC : 2015-10-07 18:15:52
    _STATISTICS_TAGS : BPS DURATION NUMBER_OF_FRAMES NUMBER_OF_BYTES
    Video
    ID : 1
    Format : AVC
    Format/Info : Advanced Video Codec
    Format profile : High@L4
    Format settings, CABAC : Yes
    Format settings, ReFrames : 4 frames
    Codec ID : V_MPEG4/ISO/AVC
    Duration : 42mn 25s
    Bit rate : 4 948 Kbps
    Width : 1 916 pixels
    Height : 1 076 pixels
    Display aspect ratio : 16:9
    Frame rate mode : Constant
    Frame rate : 23.976 fps
    Color space : YUV
    Chroma subsampling : 4:2:0
    Bit depth : 8 bits
    Scan type : Progressive
    Bits/(Pixel*Frame) : 0.100
    Stream size : 1.47 GiB (85%)
    Language : English
    Default : Yes
    Forced : No
    Color range : Limited
    Color primaries : BT.709
    Transfer characteristics : BT.709
    Matrix coefficients : BT.709
    Audio #1
    ID : 2
    Format : AC-3
    Format/Info : Audio Coding 3
    Mode extension : CM (complete main)
    Format settings, Endianness : Big
    Codec ID : A_AC3
    Duration : 42mn 25s
    Bit rate mode : Constant
    Bit rate : 384 Kbps
    Channel(s) : 6 channels
    Channel positions : Front: L C R, Side: L R, LFE
    Sampling rate : 48.0 KHz
    Compression mode : Lossy
    Stream size : 117 MiB (7%)
    Language : Russian
    Default : Yes
    Forced : Yes
    Audio #2
    ID : 3
    Format : AC-3
    Format/Info : Audio Coding 3
    Mode extension : CM (complete main)
    Format settings, Endianness : Big
    Codec ID : A_AC3
    Duration : 42mn 25s
    Bit rate mode : Constant
    Bit rate : 384 Kbps
    Channel(s) : 6 channels
    Channel positions : Front: L C R, Side: L R, LFE
    Sampling rate : 48.0 KHz
    Compression mode : Lossy
    Stream size : 117 MiB (7%)
    Language : English
    Default : No
    Forced : No


    Скриншоты для ознакомления




    Онлайн видео Флэш



    Флэш/The Flash (2015) WEB-DL [H.264/1080p-LQ] (сезон 2, серии 1-16 из 20) NewStudio (обновляемая)
    загрузка...
    Рейтинг →
     (голосов: 1, оценка 3/5, голосовать можно 1 раз )

    Другие торренты по теме:

  • Флэш / The Flash (2014) WEB-DL [H.264 / 720p-LQ] (Сезон 1, серия 1 из 13) BaibaKo (обновляемая)
  • Флэш / The Flash (2014) WEB-DLRip (сезон 1, серии 1 из 13) BaibaKo (обновляемая)
  • Флэш (The Flash) / (Сезон 1, серия 1 из 13) BaibaKo (2014) [MP4|720x400] <WEB-DLRip H.264>
  • Флэш (The Flash) / (Сезон 1, серия 1 из 13) LostFilm (2014) [MP4|1280x718] <WEB-DL H.264>
  • Флэш / The Flash (2014) WEB-DLRip (сезон 1, серии 1-2 из 13) LostFilm (обновляемая) скачать через торрент бесплатно
  • Флэш / The Flash (2014) WEB-DLRip (сезон 1, серии 1-2 из 13) NewStudio (обновляемая) скачать через торрент бесплатно
  • Флэш / The Flash (2014) WEB-DL [H.264 / 720p-LQ] (сезон 1, серии 1-8 из 23) LostFilm (обновляемая)
  • Флэш / The Flash (2014) WEB-DL [H.264 / 1080p-LQ] (сезон 1, серии 1-8 из 23) LostFilm (обновляемая)


    • Комментарии (0):

      Информация

      Информация

        Посетители, находящиеся в группе Гости, не могут оставлять комментарии в данной новости.

        ↓ Меню




        ↓ Опрос

        Вы добавили сайт в закладки?
        Да
        Нет


        Top 10 за месяц (Фильмы)