.
Авторизация | Регистрация
Хочешь лучшие торренты? Добавь свой email!
Добавить

Торрент скачать бесплатно

» » Слэшер / Slasher (2016) WEB-DL [H.264 / 720p-LQ] (сезон 1, серии 1-3 из 8) VO-production (Обновляемая) торрент скачать бесплатно




    Слэшер / Slasher (2016) WEB-DL [H.264 / 720p-LQ] (сезон 1, серии 1-3 из 8) VO-production (Обновляемая) торрент скачать бесплатно

    Опубликовал: Админ | Дата: 25-03-2016, 16:55 | Просмотров: 36

    Производство: США, Великобритания, Канада
    Жанр: Ужасы, Триллер, Драма
    Режиссер: Крэйг Дэвид Уоллес

    Актеры
    Кэти МакГрат, Брэндон Джей МакЛарен, Стив Байерс, Джессика Сайпос, Дэвид Патрик Флемминг, Шон Ахмед, Ашанти Бромфилд и др.

    Описание

    Сара Беннетт, молодая женщина, которая возвращается в небольшой город, где родилась, и обнаруживает себя в центре ужасающей серии убийств, основанных на широко известном убийстве её родителей. Вскоре все, кто окружает Сару, становятся подозреваемыми или жертвами, по мере того, как убийств становится всё больше и раскрываются давно похороненные секреты. Сара начинает допрашивать всех и каждого вокруг себя, включая своего мужа Дилана.

    Продолжительность: ~ 00: 52: 00 серия
    Качество видео: WEB-DL
    Перевод: Многоголосый закадровый, профессиональный - VO Production
    Видео: AVC/H.264, 1280x720, ~3500 kbps
    Аудио: AC3, 2 ch, 48 kHz, 256 kbps
    Код:

    Полное имя : E:ТоррентыSlasher_s01_WEB-DLSlasher_0101_WEB-DL_VO-production.mkv
    Формат : Matroska
    Версия формата : Version 4/Version 2
    Размер файла : 1, 36 Гбайт
    Продолжительность : 52 м.
    Общий поток : 3757 Кбит/сек
    Дата кодирования : UTC 2016-03-11 20:44:14
    Программа кодирования : mkvmerge v8.3.0 (\'Over the Horizon\') 64bit
    Библиотека кодирования : libebml v1.3.1 + libmatroska v1.4.2
    DURATION : 00:52:00.256000000
    NUMBER_OF_FRAMES : 97508
    NUMBER_OF_BYTES : 99848192
    _STATISTICS_WRITING_APP : mkvmerge v8.3.0 (\'Over the Horizon\') 64bit
    _STATISTICS_WRITING_DATE_UTC : 2016-03-11 20:44:14
    _STATISTICS_TAGS : BPS DURATION NUMBER_OF_FRAMES NUMBER_OF_BYTES
    Видео
    Идентификатор : 1
    Формат : AVC
    Формат/Информация : Advanced Video Codec
    Профиль формата :High@L4.1
    Параметр CABAC формата : Да
    Параметр ReFrames формата : 3 кадра
    Идентификатор кодека : V_MPEG4/ISO/AVC
    Продолжительность : 52 м.
    Битрейт : 3500 Кбит/сек
    Ширина : 1280 пикселей
    Высота : 720 пикселей
    Соотношение сторон : 16:9
    Режим частоты кадров : Постоянный
    Частота кадров : 23, 976 кадра/сек
    Цветовое пространство : YUV
    Субдискретизация насыщенности : 4:2:0
    Битовая глубина : 8 бит
    Тип развёртки : Прогрессивная
    Бит/(Пиксели*Кадры) : 0.158
    Размер потока : 1, 24 Гбайт (91%)
    Библиотека кодирования : x264 core 65 r999kMod cc51047
    Настройки программы : cabac=1/ref=3/deblock=0:0:0/analyse=0x3:0x133/me=umh/subme=6/psy_rd=1.0:0.0/mixed_ref=1/me_range=16/chroma_me=1/trellis=1/8x8dct=1/cqm=0/deadzone=21, 11/chroma_qp_offset=-2/threads=4/thread_queue=4/nr=0/decimate=1/mbaff=0/bframes=3/b_pyramid=1/b_adapt=1/b_bias=0/direct=3/wpredb=1/keyint=250/keyint_min=25/scenecut=40(pre)/rc=2pass/bitrate=3500/ratetol=1.0/qcomp=0.60/qpmin=10/qpmax=51/qpstep=4/cplxblur=20.0/qblur=0.5/ip_ratio=1.40/pb_ratio=1.30/aq=1:1.00
    Default : Да
    Forced : Нет
    Аудио
    Идентификатор : 2
    Формат : AC-3
    Формат/Информация : Audio Coding 3
    Расширение режима : CM (complete main)
    Параметр Endianness формата : Big
    Идентификатор кодека : A_AC3
    Продолжительность : 52 м.
    Вид битрейта : Постоянный
    Битрейт : 256 Кбит/сек
    Каналы : 2 канала
    Расположение каналов : Front: L R
    Частота : 48, 0 КГц
    Метод сжатия : С потерями
    Размер потока : 95, 2 Мбайт (7%)
    Default : Да
    Forced : Нет


    Скриншоты для ознакомления




    Онлайн видео Слэшер



    Слэшер/Slasher (2016) WEB-DL [H.264/720p-LQ] (сезон 1, серии 1-3 из 8) VO-production (Обновляемая)
    загрузка...
    Рейтинг →
     (голосов: 1, оценка 5/5, голосовать можно 1 раз )

    Другие торренты по теме:

  • Лос-анджелесский слэшер / L.A. Slasher (2015) DVDRip [VO] скачать через торрент бесплатно


    • Комментарии (0):

      Информация

      Информация

        Посетители, находящиеся в группе Гости, не могут оставлять комментарии в данной новости.

        ↓ Меню




        ↓ Опрос

        Вы добавили сайт в закладки?
        Да
        Нет


        Top 10 за месяц (Фильмы)