.
Авторизация | Регистрация
Хочешь лучшие торренты? Добавь свой email!
Добавить

Торрент скачать бесплатно

» » Настоящий детектив / True Detective (2015) BDRip (сезон 2, серии 1-8 из 8) Novamedia торрент скачать бесплатно




    Настоящий детектив / True Detective (2015) BDRip (сезон 2, серии 1-8 из 8) Novamedia торрент скачать бесплатно

    Опубликовал: Админ | Дата: 25-03-2016, 16:55 | Просмотров: 53

    Производство: США, HBO
    Жанр: детектив, криминал, триллер, драма
    Режиссер: Джастин Лин, Дэниэл Эттиэс, Янус Мец Педерсен, Мигель Сапочник

    Актеры
    Колин Фаррелл, Рэйчел МакАдамс, Тейлор Китч, Винс Вон, У. Эрл Браун, Крис Керсон, К.С. Ли, Кристофер Джеймс Бэйкер, Майкл Ирби, Тимоти В. Мерфи, Адриа Архона, Миранда Рэй Майо, Келли Райлли и др.

    Описание

    Мы живем в мире, который заслуживаем. Божий одуванчик, сказал кто то из толпы, к чему не понятно. В новом сезон любимого сериалае культового сериала зрителей ждут новое расследование и новые герои. Мрачное убийство, произошедшее в Калифорнии объединяет четырех персонажей в исполнении Колина Фаррелла, Рэйчел МакАдамс, Тейлора Китча и Винса Вона. Они объединяются, чтобы начать охоту на таинственного убийцу и разоблачить тех, чьи приказы он выполняет.

    Продолжительность: ~ 01: 00: 00 серия
    Качество видео: BDRip
    Перевод: Многоголосый закадровый профессиональный -Novamedia по заказу Amedia
    Видео: XVID, 720x400 (16: 9), ~1800 kbps
    Аудио #1 Rus: AC3, 48, 0 kHz, 6 ch, 384 Kbps, CBR (Novamedia)
    Аудио #2 Eng: AC3, 48, 0 kHz, 6 ch, 448 Kbps, CBR (оригинал)
    Код:
    Общее
    Полное имя : F:DOWNLOADSНастоящий детектив (2 сезон любимого сериала) 2015 BDRipНастоящий детектив 2 - 01 серия.avi
    Формат : AVI
    Формат/Информация : Audio Video Interleave
    Размер файла : 1, 12 Гбайт
    Продолжительность : 1 ч. 0 м.
    Общий поток : 2650 Кбит/сек
    Программа кодирования : VirtualDubMod 1.5.10.3 |www.virtualdub-fr.org|| (build 2550/release)
    Библиотека кодирования : VirtualDubMod build 2550/release
    Видео
    Идентификатор : 0
    Формат : MPEG-4 Visual
    Профиль формата : Advanced Simple@L5
    Параметр BVOP формата : 1
    Параметр QPel формата : Нет
    Параметр GMC формата : Без точки перехода
    Параметр матрицы формата : Default (MPEG)
    Идентификатор кодека : XVID
    Идентификатор кодека/Подсказка : XviD
    Продолжительность : 1 ч. 0 м.
    Битрейт : 1804 Кбит/сек
    Ширина : 720 пикселей
    Высота : 400 пикселей
    Соотношение сторон : 16:9
    Частота кадров : 23, 976 кадра/сек
    Цветовое пространство : YUV
    Субдискретизация насыщенности : 4:2:0
    Битовая глубина : 8 бит
    Тип развёртки : Прогрессивная
    Метод сжатия : С потерями
    Бит/(Пиксели*Кадры) : 0.261
    Размер потока : 778 Мбайт (68%)
    Библиотека кодирования : XviD 73
    Аудио #1
    Идентификатор : 1
    Формат : AC-3
    Формат/Информация : Audio Coding 3
    Расширение режима : CM (complete main)
    Параметр Endianness формата : Big
    Идентификатор кодека : 2000
    Продолжительность : 1 ч. Прикольно все это наверно придумал Папа Римский потратив достаточно времени. 0 м.
    Вид битрейта : Постоянный
    Битрейт : 384 Кбит/сек
    Каналы : 6 каналов
    Расположение каналов : Front: L C R, Side: L R, LFE
    Частота : 48, 0 КГц
    Метод сжатия : С потерями
    Размер потока : 166 Мбайт (14%)
    Выравнивание : Разделение по промежуткам
    Продолжительность промежутка : 42 мс. (1, 00 видеокадр)
    Время предзагрузки промежутка : 500 мс.
    Аудио #2
    Идентификатор : 2
    Формат : AC-3
    Формат/Информация : Audio Coding 3
    Расширение режима : CM (complete main)
    Параметр Endianness формата : Big
    Идентификатор кодека : 2000
    Продолжительность : 1 ч. 0 м.
    Вид битрейта : Постоянный
    Битрейт : 448 Кбит/сек
    Каналы : 6 каналов
    Расположение каналов : Front: L C R, Side: L R, LFE
    Частота : 48, 0 КГц
    Метод сжатия : С потерями
    Размер потока : 193 Мбайт (17%)
    Выравнивание : Разделение по промежуткам
    Продолжительность промежутка : 42 мс. (1, 00 видеокадр)
    Время предзагрузки промежутка : 500 мс.


    Скриншоты для ознакомления




    Онлайн видео Настоящий детектив



    Настоящий детектив/True Detective (2015) BDRip (сезон 2, серии 1-8 из 8) Novamedia
    загрузка...
    Рейтинг →
     (голосов: 1, оценка 4/5, голосовать можно 1 раз )

    Другие торренты по теме:

  • Настоящий детектив / True Detective (2014) BDRip [H.264] (сезон 1, серии 1-8 из 8) Amedia, Кубик в Кубе скачать через торрент бесплатно
  • Настоящий детектив / True Detective (2015) HDTVRip (сезон 2, серия 1 из 8) Новамедиа (обновляемая) скачать через торрент бесплатно
  • Настоящий детектив / True Detective (2015) HDTV [H.264 / 1080p-LQ] (сезон 2, серии 1 из 8) Новамедиа (обновляемая) скачать через торрент бесплатно
  • Настоящий детектив / True Detective (2015) HDTVRip (сезон 2, серии 1 из 8) BaibaKo (обновляемая) скачать через торрент бесплатно
  • Настоящий детектив / True Detective (2015) HDTV [H.264 / 720p-LQ] (сезон 2, серии 1 из 8) Кубик в Кубе (обновляемая) скачать через торрент бесплатно
  • Настоящий детектив / True Detective (2015) HDTVRip [H.264] (сезон 2, серия 1 из 8) Новамедиа (обновляемая) скачать через торрент бесплатно
  • Настоящий детектив / True Detective (2015) HDTV [H.264 / 1080p] (сезон 2, серии 1-2 из 8) Кубик в Кубе + Novamedia + BaibaKo (обновляемая) скачать через торрент бесплатно
  • Настоящий детектив / True Detective (2015) HDTVRip (сезон 2, серии 1-2 из 8) Кубик в Кубе + Novamedia + BaibaKo (обновляемая) скачать через торрент бесплатно


    • Комментарии (0):

      Информация

      Информация

        Посетители, находящиеся в группе Гости, не могут оставлять комментарии в данной новости.

        ↓ Меню




        ↓ Опрос

        Вы добавили сайт в закладки?
        Да
        Нет


        Top 10 за месяц (Фильмы)