.
Авторизация | Регистрация
Хочешь лучшие торренты? Добавь свой email!
Добавить

Торрент скачать бесплатно

» » Морские дьяволы. Смерч-3 (2015) HDTVRip [H.264 / 1080i] (сезон 3, серии 1-20 из 32) (обновляемая) торрент скачать бесплатно




    Морские дьяволы. Смерч-3 (2015) HDTVRip [H.264 / 1080i] (сезон 3, серии 1-20 из 32) (обновляемая) торрент скачать бесплатно

    Опубликовал: Админ | Дата: 25-03-2016, 16:55 | Просмотров: 38

    Производство: Россия/ООО Гамма-продакшн при участии ООО Анима Фильм Компани
    Жанр: боевик, приключения
    Режиссер: Александр Картохин, Максим Демченко, Владимир Койфман

    Актеры
    Олег Чернов, Дарья Юргенс, Иван Паршин, Антон Гуляев, Владимир Ярош, Дарья Циберкина, Снежана Прудько, Анатолий Друзенко, Игорь Григорьев, Олеся Ерикова.

    Описание

    Подразделение Морские дьяволы Смерч незначительно обновилось в связи с новыми запросами по противодействию преступности и повышению эффективности борьбы с терроризмом появился новый сотрудник который задействован в специализации по IT-технологиям известный в этих кругах под ником Дакар. Ему удается буквально с ходу снять все сомнения в своей компетенции и доказать свой профессионализм установив местонахождение бывшего военного, а ныне профессионального ликвидатора. Дакар вычисляет его связь с известным террористом, который готовит покушение на генерала Кочергина. Пригов предлагает использовать генерала как приманку и поручает его охрану своим бойцам.

    Релиз от: Nikolspup
    Продолжительность: 00: 42: 00 серия
    Качество видео: HDTVRip
    Видео: AVC/H.264, 1920x1080 (16: 9), 25.000 fps, 7 869 Kbps (0.152 bit/pixel)
    Аудио: MP2, 48.0 KHz, 2 ch, 192 Kbps, CBR
    Код:

    Общее
    Идентификатор : 1 (0x1)
    Полное имя : F:видеосериалыMorskie.Dyavoly.Smerch-3.2015.HDTV.(1080i)Morskie.Dyavoly.Smerch-3.(01.seriya).2015.HDTV.(1080i).ts
    Формат : MPEG-TS
    Размер файла : 2, 54 Гбайт
    Продолжительность : 42 м.
    Режим общего битрейта : Переменный
    Общий поток : 8482 Кбит/сек
    Видео
    Идентификатор : 901 (0x385)
    Идентификатор меню : 1116 (0x45C)
    Формат : AVC
    Формат/Информация : Advanced Video Codec
    Профиль формата : Main@L4
    Параметр CABAC формата : Да
    Параметр ReFrames формата : 2 кадра
    Идентификатор кодека : 27
    Продолжительность : 42 м.
    Битрейт : 7869 Кбит/сек
    Ширина : 1920 пикселей
    Высота : 1080 пикселей
    Соотношение сторон : 16:9
    Частота кадров : 25, 000 кадров/сек
    Цветовое пространство : YUV
    Субдискретизация насыщенности : 4:2:0
    Битовая глубина : 8 бит
    Тип развёртки : MBAFF
    Метод сохранения типа развёртки : Чередующиеся поля
    Порядок развёртки : Верхнее поле первое
    Бит/(Пиксели*Кадры) : 0.152
    Размер потока : 2, 36 Гбайт (93%)
    Цветовой диапазон : Limited
    Основные цвета : BT.709
    Характеристики трансфера : BT.709
    Коэффициенты матрицы : BT.709
    Аудио
    Идентификатор : 902 (0x386)
    Идентификатор меню : 1116 (0x45C)
    Формат : MPEG Audio
    Версия формата : Version 1
    Профиль формата : Layer 2
    Идентификатор кодека : 3
    Продолжительность : 42 м.
    Вид битрейта : Постоянный
    Битрейт : 192 Кбит/сек
    Каналы : 2 канала
    Частота : 48, 0 КГц
    Метод сжатия : С потерями
    Размер потока : 58, 9 Мбайт (2%)
    Язык : Russian


    Скриншоты для ознакомления




    Онлайн видео Морские дьяволы. Волк в овечьей шкуре, сказал кто то из толпы, к чему не понятно. Смерч-3 (2015) HDTVRip [H.264



    Морские дьяволы. Смерч-3 (2015) HDTVRip [H.264/1080i] (сезон 3, серии 1-20 из 32) (обновляемая)
    загрузка...
    Рейтинг →
     (голосов: 1, оценка 3/5, голосовать можно 1 раз )

    Другие торренты по теме:

  • Морские дьяволы. Северные рубежи (2017) WEBRip (1 сезон, серии 1-20 из 20)
  • Морские дьяволы. Северные рубежи (2017) HDTVRip [H.264] (сезон 1, серии 1-20 из 20)
  • Морские дьяволы. Северные рубежи (2017) HDTVRip [H.264 / 720p-LQ] (сезон 1, серии 1-20 из 20)
  • Морские дьяволы. Смерч 2 (2014) SATRip (серии 1-35 из 64) [обновляемая] скачать через торрент бесплатно
  • Морские дьяволы. Смерч-3 (2016) SATRip (сезон 3, серии 1-2 из 16) (обновляемая)
  • Морские дьяволы. Смерч. Судьбы (2016) SATRip [H.264] (сезон 2, серия 1-2 из 16) (Обновляемая)
  • Морские дьяволы. Смерч-3 (2015) HDTVRip [H.264 / 720p] [сезон 3, серии 1-12 из 32] [обновляемая]
  • Морские дьяволы. Смерч. Судьбы (2013) WEBRip (сезон 1, серий 1-14 из 14)


    • Комментарии (0):

      Информация

      Информация

        Посетители, находящиеся в группе Гости, не могут оставлять комментарии в данной новости.

        ↓ Меню




        ↓ Опрос

        Вы добавили сайт в закладки?
        Да
        Нет


        Top 10 за месяц (Фильмы)