.
Авторизация | Регистрация
Хочешь лучшие торренты? Добавь свой email!
Добавить

Торрент скачать бесплатно

» » Гуд бай, Ленин! / Good Bye Lenin! (2003) BDRip [H.264 / 1080p-LQ] торрент скачать бесплатно




    Гуд бай, Ленин! / Good Bye Lenin! (2003) BDRip [H.264 / 1080p-LQ] торрент скачать бесплатно

    Опубликовал: Админ | Дата: 25-03-2016, 16:55 | Просмотров: 33

    Производство: Германия
    Жанр: Комедия, Драма, Мелодрама
    Режиссер: Вольфганг Беккер

    Актеры
    Даниэль Брюль, Катрин Засс, Мария Зимон, Чулпан Хаматова, Флориан Лукас, Александр Байер, Бургхарт Клаусснер, Михаэль Гвиздек.

    Описание

    Мать Алекса впала в кому незадолго до падения Берлинской стены. А когда, наконец, пришла в себя, не было уже ни ГДР, ни стран победившего социализма. Тревожась за здоровье матушки, Алекс решил не сообщать ей о переменах: ведь что может стать более убийственным для убеждённой коммунистки, чем торжество капитализма?
    Сыну пришлось пойти на обман и превратить свою квартиру в островок прошлого, в последний оплот несуществующего государства. Старательно делать вид, что дело Ленина по-прежнему живет и побеждает.

    Продолжительность: 02: 01: 08
    Качество видео: BDRip
    Перевод: Многоголосый закадровый, профессиональный
    Язык субтитров: Русский, Английский, Немецкий
    Вид субтитров: Вшитые отключаемые
    Видео: AVC/H.264, 1904x1072 (16: 9), ~8000 Kbps, 24 fps
    Аудио 1: AC3, 6 ch, 384 kbps (48 kHz), CBR - Русский, многоголосый
    Аудио 2: AC3, 6 ch, 448 kbps (48 kHz), CBR - Русский, многоголосый
    Аудио 3: AC3, 6 ch, 640 kbps (48 kHz), CBR - Немецкий, оригинал
    Код:

    General
    Unique ID : 238419735097355947305980646605229009199 (0xB35DF880D2C17BDB8BA72E4B2DE2292F)
    Complete name : G:Download_GProschay_Lenin_1080p.mkv
    Format : Matroska
    Format version : Version 2
    File size : 8.03 GiB
    Duration : 2h 1mn
    Overall bit rate mode : Variable
    Overall bit rate : 9 444 Kbps
    Encoded date : UTC 2013-10-15 00:42:29
    Writing application : mkvmerge v6.2.0 (\'Promised Land\') built on Apr 28 2013 12:22:01
    Writing library : libebml v1.3.0 + libmatroska v1.4.0
    Video
    ID : 1
    Format : AVC
    Format/Info : Advanced Video Codec
    Format profile :High@L4.1
    Format settings, CABAC : Yes
    Format settings, ReFrames : 3 frames
    Codec ID : V_MPEG4/ISO/AVC
    Duration : 2h 1mn
    Bit rate mode : Variable
    Bit rate : 7 999 Kbps
    Maximum bit rate : 14.0 Mbps
    Width : 1 904 pixels
    Height : 1 072 pixels
    Display aspect ratio : 16:9
    Frame rate mode : Constant
    Frame rate : 24.000 fps
    Color space : YUV
    Chroma subsampling : 4:2:0
    Bit depth : 8 bits
    Scan type : Progressive
    Bits/(Pixel*Frame) : 0.163
    Stream size : 6.62 GiB (82%)
    Writing library : x264 core 133 r2334 a3ac64b
    Encoding settings : cabac=1/ref=4/deblock=1:-1:-1/analyse=0x3:0x133/me=tesa/subme=11/psy=1/psy_rd=1.00:0.15/mixed_ref=1/me_range=24/chroma_me=1/trellis=2/8x8dct=1/cqm=0/deadzone=21, 11/fast_pskip=0/chroma_qp_offset=-3/threads=12/lookahead_threads=1/sliced_threads=0/slices=4/nr=0/decimate=1/interlaced=0/bluray_compat=1/constrained_intra=0/bframes=3/b_pyramid=1/b_adapt=1/b_bias=0/direct=3/weightb=1/open_gop=1/weightp=1/keyint=230/keyint_min=1/scenecut=40/intra_refresh=0/rc_lookahead=60/rc=2pass/mbtree=1/bitrate=7999/ratetol=1.0/qcomp=0.60/qpmin=0/qpmax=69/qpstep=4/cplxblur=20.0/qblur=0.5/vbv_maxrate=14000/vbv_bufsize=14000/nal_hrd=vbr/ip_ratio=1.40/aq=1:1.00
    Language : English
    Default : Yes
    Forced : No
    Audio #1
    ID : 2
    Format : AC-3
    Format/Info : Audio Coding 3
    Mode extension : CM (complete main)
    Format settings, Endianness : Big
    Codec ID : A_AC3
    Duration : 2h 1mn
    Bit rate mode : Constant
    Bit rate : 384 Kbps
    Channel(s) : 6 channels
    Channel positions : Front: L C R, Side: L R, LFE
    Sampling rate : 48.0 KHz
    Compression mode : Lossy
    Stream size : 334 MiB (4%)
    Title : Многоголосый 1
    Language : Russian
    Default : Yes
    Forced : No
    Audio #2
    ID : 3
    Format : AC-3
    Format/Info : Audio Coding 3
    Mode extension : CM (complete main)
    Format settings, Endianness : Big
    Codec ID : A_AC3
    Duration : 2h 1mn
    Bit rate mode : Constant
    Bit rate : 448 Kbps
    Channel(s) : 6 channels
    Channel positions : Front: L C R, Side: L R, LFE
    Sampling rate : 48.0 KHz
    Compression mode : Lossy
    Stream size : 390 MiB (5%)
    Title : Многоголосый 2
    Language : Russian
    Default : No
    Forced : No
    Audio #3
    ID : 4
    Format : AC-3
    Format/Info : Audio Coding 3
    Mode extension : CM (complete main)
    Format settings, Endianness : Big
    Codec ID : A_AC3
    Duration : 2h 1mn
    Bit rate mode : Constant
    Bit rate : 640 Kbps
    Channel(s) : 6 channels
    Channel positions : Front: L C R, Side: L R, LFE
    Sampling rate : 48.0 KHz
    Compression mode : Lossy
    Stream size : 557 MiB (7%)
    Title : Немецкий
    Language : German
    Default : No
    Forced : No
    Text #1
    ID : 5
    Format : PGS
    Muxing mode : zlib
    Codec ID : S_HDMV/PGS
    Codec ID/Info : Picture based subtitle format used on BDs/HD-DVDs
    Title : Русские 1
    Language : Russian
    Default : No
    Forced : No
    Text #2
    ID : 6
    Format : PGS
    Muxing mode : zlib
    Codec ID : S_HDMV/PGS
    Codec ID/Info : Picture based subtitle format used on BDs/HD-DVDs
    Title : Русские 2
    Language : Russian
    Default : No
    Forced : No
    Text #3
    ID : 7
    Format : PGS
    Muxing mode : zlib
    Codec ID : S_HDMV/PGS
    Codec ID/Info : Picture based subtitle format used on BDs/HD-DVDs
    Title : Английские
    Language : English
    Default : No
    Forced : No
    Text #4
    ID : 8
    Format : PGS
    Muxing mode : zlib
    Codec ID : S_HDMV/PGS
    Codec ID/Info : Picture based subtitle format used on BDs/HD-DVDs
    Title : Немецкие
    Language : German
    Default : No
    Forced : No
    Menu
    00:00:00.000 : en:00:00:00.000
    00:04:09.125 : en:00:04:09.125
    00:08:18.375 : en:00:08:18.375
    00:11:43.833 : en:00:11:43.833
    00:16:10.542 : en:00:16:10.542
    00:18:21.875 : en:00:18:21.875
    00:21:16.500 : en:00:21:16.500
    00:23:20.292 : en:00:23:20.292
    00:26:26.542 : en:00:26:26.542
    00:29:06.750 : en:00:29:06.750
    00:33:21.667 : en:00:33:21.667
    00:38:30.917 : en:00:38:30.917
    00:43:50.417 : en:00:43:50.417
    00:48:08.417 : en:00:48:08.417
    00:50:53.417 : en:00:50:53.417
    00:52:40.083 : en:00:52:40.083
    00:57:09.250 : en:00:57:09.250
    01:04:42.792 : en:01:04:42.792
    01:07:30.708 : en:01:07:30.708
    01:10:52.042 : en:01:10:52.042
    01:16:58.167 : en:01:16:58.167
    01:20:38.708 : en:01:20:38.708
    01:26:29.708 : en:01:26:29.708
    01:30:25.958 : en:01:30:25.958
    01:35:03.500 : en:01:35:03.500
    01:38:54.583 : en:01:38:54.583
    01:45:16.958 : en:01:45:16.958
    01:48:30.375 : en:01:48:30.375
    01:55:01.250 : en:01:55:01.250
    01:56:55.750 : en:01:56:55.750


    Скриншоты для ознакомления




    Онлайн видео Гуд бай, Ленин!



    Гуд бай, Ленин!/Good Bye Lenin! (2003) BDRip [H.264/1080p-LQ]
    загрузка...
    Рейтинг →
     (голосов: 1, оценка 5/5, голосовать можно 1 раз )

    Другие торренты по теме:

  • Гуд бай, Ленин! / Good Bye Lenin! (2003) BDRip [H.264 / 1080p]
  • Гуд бай, Ленин! / Good Bye Lenin! (2003) BDRip [H.265 / 1080p] [10-bit]


    • Комментарии (0):

      Информация

      Информация

        Посетители, находящиеся в группе Гости, не могут оставлять комментарии в данной новости.

        ↓ Меню




        ↓ Опрос

        Вы добавили сайт в закладки?
        Да
        Нет


        Top 10 за месяц (Фильмы)