.
Авторизация | Регистрация
Хочешь лучшие торренты? Добавь свой email!
Добавить

Торрент скачать бесплатно

» » 451 градус по Фаренгейту / Fahrenheit 451 (1966) BDRip [H.264] торрент скачать бесплатно




    451 градус по Фаренгейту / Fahrenheit 451 (1966) BDRip [H.264] торрент скачать бесплатно

    Опубликовал: Админ | Дата: 25-03-2016, 16:55 | Просмотров: 33

    Производство: Великобритания
    Жанр: Фантастика, Триллер, Драма
    Режиссер: Франсуа Трюффо

    Актеры
    Оскар Вернер, Джули Кристи, Сирил Кьюcак, Антон Диффринг, Джереми Спенсер, Би Даффелл, Ноэл Дэвис, Джиллиан Алдам, Майкл Бальфур, Энн Белл

    Описание

    Мир будущего, в котором все письменные издания безжалостно уничтожаются специальным отрядом пожарных-огнеметчиков, а интерес к книгам и как над жаровней их хранение преследуются по закону.
    Сержант Гай Монтэг слепо выполняет приказы по уничтожению литературы, но встреча с юной Клариссой заставляет его переосмыслить свою жизнь. Он становится инакомыслящим — отщепенцем в тоталитарном обществе, читающем только комиксы.

    Продолжительность: 01: 52: 25
    Качество видео: BDRip
    Перевод: Многоголосый закадровый, профессиональный
    Язык субтитров: Русский, Английский
    Вид субтитров: Вшитые отключаемые
    Видео: AVC/H.264, 1056x572 (1.85: 1), ~4481 Kbps, 23.976 fps
    Аудио 1: AC3, 1 ch, 192.00 kbps, 48 KHz, CBR - Русский, СТС
    Аудио 2: AC3, 2 ch, 192.00 kbps, 48 KHz, CBR - Английский, оригинал
    Код:

    General
    Unique ID : 180477377810530093521672091958682462257 (0x87C6ADBA1ABE7CC7A16A901C824E2831)
    Complete name : G:Download_GFahrenheit_451_1966_BDRip_AVC.mkv
    Format : Matroska
    Format version : Version 2
    File size : 3.90 GiB
    Duration : 1h 52mn
    Overall bit rate : 4 964 Kbps
    Movie name : Fahrenheit 451 (1966) - BDRip by Juvelir
    Encoded date : UTC 2013-12-01 16:08:35
    Writing application : mkvmerge v3.4.0 (\'Rapunzel\') сборка от May 15 2010 09:38:20
    Writing library : libebml v0.8.0 + libmatroska v0.9.0
    Video
    ID : 1
    Format : AVC
    Format/Info : Advanced Video Codec
    Format profile : High@L4
    Format settings, CABAC : Yes
    Format settings, ReFrames : 12 frames
    Codec ID : V_MPEG4/ISO/AVC
    Duration : 1h 52mn
    Bit rate : 4 481 Kbps
    Width : 1 056 pixels
    Height : 572 pixels
    Display aspect ratio : 1.85:1
    Frame rate mode : Constant
    Frame rate : 23.976 fps
    Color space : YUV
    Chroma subsampling : 4:2:0
    Bit depth : 8 bits
    Scan type : Progressive
    Bits/(Pixel*Frame) : 0.309
    Stream size : 3.52 GiB (90%)
    Writing library : x264 core 140 r2377kMod 1ca7bb9
    Encoding settings : cabac=1/ref=12/deblock=1:-2:-2/analyse=0x3:0x133/me=umh/subme=9/psy=1/fade_compensate=0.90/psy_rd=1.05:0.10/mixed_ref=1/me_range=32/chroma_me=1/trellis=2/8x8dct=1/cqm=0/deadzone=21, 11/fast_pskip=0/chroma_qp_offset=-3/threads=6/lookahead_threads=1/sliced_threads=0/nr=0/decimate=1/interlaced=0/bluray_compat=0/constrained_intra=0/fgo=0/bframes=13/b_pyramid=2/b_adapt=2/b_bias=0/direct=3/weightb=1/open_gop=0/weightp=2/keyint=240/keyint_min=23/scenecut=40/intra_refresh=0/rc_lookahead=80/rc=crf/mbtree=1/crf=20.1000/qcomp=0.70/qpmin=0/qpmax=69/qpstep=4/vbv_maxrate=20000/vbv_bufsize=25000/crf_max=0.0/nal_hrd=none/filler=0/ip_ratio=1.40/aq=2:0.80
    Language : English
    Default : Yes
    Forced : Yes
    Color range : Limited
    Color primaries : BT.709
    Transfer characteristics : BT.709
    Matrix coefficients : BT.709
    Audio #1
    ID : 2
    Format : AC-3
    Format/Info : Audio Coding 3
    Mode extension : CM (complete main)
    Format settings, Endianness : Big
    Codec ID : A_AC3
    Duration : 1h 52mn
    Bit rate mode : Constant
    Bit rate : 192 Kbps
    Channel(s) : 1 channel
    Channel positions : Front: C
    Sampling rate : 48.0 KHz
    Compression mode : Lossy
    Stream size : 154 MiB (4%)
    Title : MVO (СТС)
    Language : Russian
    Default : Yes
    Forced : No
    Audio #2
    ID : 3
    Format : AC-3
    Format/Info : Audio Coding 3
    Mode extension : CM (complete main)
    Format settings, Endianness : Big
    Codec ID : A_AC3
    Duration : 1h 52mn
    Bit rate mode : Constant
    Bit rate : 192 Kbps
    Channel(s) : 2 channels
    Channel positions : Front: L R
    Sampling rate : 48.0 KHz
    Compression mode : Lossy
    Stream size : 154 MiB (4%)
    Title : Original
    Language : English
    Default : No
    Forced : No
    Text #1
    ID : 4
    Format : UTF-8
    Codec ID : S_TEXT/UTF8
    Codec ID/Info : UTF-8 Plain Text
    Language : Russian
    Default : No
    Forced : No
    Text #2
    ID : 5
    Format : UTF-8
    Codec ID : S_TEXT/UTF8
    Codec ID/Info : UTF-8 Plain Text
    Language : English
    Default : No
    Forced : No
    Text #3
    ID : 6
    Format : UTF-8
    Codec ID : S_TEXT/UTF8
    Codec ID/Info : UTF-8 Plain Text
    Title : SDH
    Language : English
    Default : No
    Forced : No
    Menu
    00:00:00.000 : :00:00:00.000
    00:07:56.267 : :00:07:56.267
    00:13:58.379 : :00:13:58.379
    00:20:16.507 : :00:20:16.507
    00:27:40.492 : :00:27:40.492
    00:34:41.955 : :00:34:41.955
    00:41:41.582 : :00:41:41.582
    00:53:57.109 : :00:53:57.109
    01:06:37.452 : :01:06:37.452
    01:19:06.617 : :01:19:06.617
    01:31:36.282 : :01:31:36.282
    01:41:48.477 : :01:41:48.477


    Скриншоты для ознакомления




    Онлайн видео 451 градус по Фаренгейту



    451 градус по Фаренгейту/Fahrenheit 451 (1966) BDRip [H.264]
    загрузка...
    Рейтинг →
     (голосов: 1, оценка 4/5, голосовать можно 1 раз )

    Другие торренты по теме:

  • Рэй Брэдбери | 451 градус по Фаренгейту (2017) [MP3]


    • Комментарии (0):

      Информация

      Информация

        Посетители, находящиеся в группе Гости, не могут оставлять комментарии в данной новости.

        ↓ Меню




        ↓ Опрос

        Вы добавили сайт в закладки?
        Да
        Нет


        Top 10 за месяц (Фильмы)