.
Авторизация | Регистрация
Хочешь лучшие торренты? Добавь свой email!
Добавить

Торрент скачать бесплатно

» » Мужики!.. (1981) HDTVRip [H.264 / 720p-LQ] торрент скачать бесплатно




    Мужики!.. (1981) HDTVRip [H.264 / 720p-LQ] торрент скачать бесплатно

    Опубликовал: Админ | Дата: 22-03-2016, 04:01 | Просмотров: 40

    Производство: СССР, Мосфильм
    Жанр: Мелодрама
    Режиссер: Искра Бабич

    Актеры
    Александр Михайлов, Ирина Иванова, Михаил Бузылёв-Крэцо, Пётр Крылов (II), Пётр Глебов, Вера Альховская, Александр Павлов, Анатолий (Отто) Солоницын, Мария Андрианова, Светлана Тормахова, Леонард Варфоломеев, М. Рихтер, Татьяна Махова (II), Афанасий Кочетков, Алексей Михайлов (II), Дмитрий Бузылёв-Крэцо...

    Описание

    Павел Зубов, сразу после срочной службы в армии подался на севера, и за много лет так и не побывал на малой родине. На то была причина. Однажды, получив телеграмму, он приезжает в родное село к умерающему отцу. Но отец умерать и не собирался в этот раз... О таком странном сюжете не догадывалась даже Юлия Володимировна. А умерла девушка Павла, провожавшая его в армию. Сиротами остались трое детей...

    Релиз от: fomatash
    Продолжительность: 01: 31: 55
    Качество видео: HDTVRip
    Видео: AVC/H.264, 1272x720, ~3824 kbps
    Аудио: MP2, 2 ch, 224 kbps, CBR
    Код:

    Общее
    Уникальный идентификатор : 242217873579088573190769460181851677677 (0xB6397730326A4DC69DA9910D406BA3ED)
    Полное имя : D:-TTTМужики-720p-MG-NNM.mkv
    Формат : Matroska
    Версия формата : Version 4/Version 2
    Размер файла : 2, 60 Гбайт
    Продолжительность : 1 ч. 31 м.
    Общий поток : 4050 Кбит/сек
    Дата кодирования : UTC 2016-03-19 23:10:31
    Программа кодирования : mkvmerge v8.9.0 (\'Father Daughter\') 64bit
    Библиотека кодирования : libebml v1.3.3 + libmatroska v1.4.4
    Видео
    Идентификатор : 1
    Формат : AVC
    Формат/Информация : Advanced Video Codec
    Профиль формата :High@L4.1
    Параметр CABAC формата : Да
    Параметр ReFrames формата : 8 кадров
    Идентификатор кодека : V_MPEG4/ISO/AVC
    Продолжительность : 1 ч. 31 м.
    Битрейт : 3824 Кбит/сек
    Ширина : 1272 пикселя
    Высота : 720 пикселей
    Соотношение сторон : 16:9
    Режим частоты кадров : Постоянный
    Частота кадров : 25, 000 кадров/сек
    Цветовое пространство : YUV
    Субдискретизация насыщенности : 4:2:0
    Битовая глубина : 8 бит
    Тип развёртки : Прогрессивная
    Бит/(Пиксели*Кадры) : 0.167
    Размер потока : 2, 46 Гбайт (94%)
    Заголовок : FomaTash for nnm-club.me
    Библиотека кодирования : x264 core 146 r2538 121396c
    Настройки программы : cabac=1/ref=8/deblock=1:-1:-1/analyse=0x3:0x133/me=umh/subme=9/psy=1/psy_rd=1.00:0.15/mixed_ref=1/me_range=32/chroma_me=1/trellis=2/8x8dct=1/cqm=0/deadzone=21, 11/fast_pskip=1/chroma_qp_offset=-3/threads=6/lookahead_threads=1/sliced_threads=0/nr=0/decimate=0/interlaced=0/bluray_compat=0/constrained_intra=0/bframes=6/b_pyramid=2/b_adapt=2/b_bias=0/direct=3/weightb=1/open_gop=0/weightp=2/keyint=240/keyint_min=23/scenecut=40/intra_refresh=0/rc_lookahead=40/rc=2pass/mbtree=0/bitrate=3824/ratetol=1.0/qcomp=0.60/qpmin=10/qpmax=51/qpstep=4/cplxblur=20.0/qblur=0.5/vbv_maxrate=50000/vbv_bufsize=62500/nal_hrd=none/filler=0/ip_ratio=1.40/pb_ratio=1.30/aq=1:1.00
    Язык : Russian
    Default : Да
    Forced : Нет
    Аудио
    Идентификатор : 2
    Формат : MPEG Audio
    Версия формата : Version 1
    Профиль формата : Layer 2
    Идентификатор кодека : A_MPEG/L2
    Идентификатор кодека/Подсказка : MP2
    Продолжительность : 1 ч. 31 м.
    Вид битрейта : Постоянный
    Битрейт : 224 Кбит/сек
    Каналы : 2 канала
    Частота : 48, 0 КГц
    Частота кадров : 41, 667 кадра/сек (1152 spf)
    Метод сжатия : С потерями
    Размер потока : 147 Мбайт (6%)
    Заголовок : MP2-2 канала
    Язык : Russian
    Default : Да
    Forced : Нет


    Скриншоты для ознакомления




    Онлайн видео Мужики!.. (1981) HDTVRip [H.264



    Мужики!.. (1981) HDTVRip [H.264/720p-LQ]
    загрузка...
    Рейтинг →
     (голосов: 1, оценка 4/5, голосовать можно 1 раз )

    Другие торренты по теме:

  • Мужики и куры / Maend & hons (2015) HDRip [H.264] скачать через торрент бесплатно
  • Мужики!.. (1981) HDTV [H.264 / 1080i]
  • Классные мужики (2010) WEB-DLRip [H.264 / 720p-LQ] (серии 1-8 из 8)
  • Крутые мужики / Tough Guys (1986) BDRip [H.264]
  • Крутые мужики / Tough Guys (1986) BDRip [H.264 / 1080p]
  • Крутые мужики / Tough Guys (1986) BDRemux [H.264 / 1080p]


    • Комментарии (0):

      Информация

      Информация

        Посетители, находящиеся в группе Гости, не могут оставлять комментарии в данной новости.

        ↓ Меню




        ↓ Опрос

        Вы добавили сайт в закладки?
        Да
        Нет


        Top 10 за месяц (Фильмы)