.
Авторизация | Регистрация
Хочешь лучшие торренты? Добавь свой email!
Добавить

Торрент скачать бесплатно

» » Странная любовь Марты Айверс / The Strange Love of Martha Ivers (1946) DVDRip торрент скачать бесплатно




    Странная любовь Марты Айверс / The Strange Love of Martha Ivers (1946) DVDRip торрент скачать бесплатно

    Опубликовал: Админ | Дата: 21-03-2016, 04:00 | Просмотров: 71

    Производство: США, Hal Wallis Productions
    Жанр: Драма, фильм-нуар
    Режиссер: Льюис Майлстоун

    Актеры
    Барбара Стэнвик, Ван Хефлин, Лизабет Скотт, Кирк Дуглас, Джудит Андерсон, Роман Бонен, Дэррил Хикман, Энн Доран, Фрэнк Орт, Джеймс Флавин

    Описание

    Барбара Стэнуик в роли Марты Айверс, богатой и могущественной женщины, практически контролирующей весь городок Айверстаун в Пенсильвании, унаследовавшей огромное фамильное состояние. Она живет со своим Уолтером (Даглас), прокурором, собирающимся стать мэром. В городке никто не знает, что Марту и Уолтера связывает одна тайна. Будучи юной девушкой, Марта случайно убила свою тетю, пытаясь бежать вместе с любимым Сэмом Мастерсоном. Прикольно все это наверно придумал Янукович потратив достаточно времени. Для того чтобы защитить честь семьи, за ее преступление был казнен невиновный человек. В ногах правды нет, сказал кто то из толпы, к чему не понятно. После долгого отсутствия Сэм (Хефлин) возвращается в Айверстаун. Супруги боятся, что он собирается заняться шантажом, но их паранойя только пробуждает любопытство к секрету детства Марты. Жестокий film-noir начинается слегка медлительно, но потом наращивает бешеный саспенс, невыносимое напряжение, в состоянии которого у каждого из персонажей что-то есть на друг друга, что-то связанное с извращенным злом.

    Продолжительность: 01: 55: 51
    Качество видео: DVDRip
    Перевод: Многоголосый закадровый
    Видео: Xvid, 704x528, ~1294 Kbps
    Аудио1: MP3, 2 ch, 192 Kbps, CBR - русский
    Аудио2: MP3, 2 ch, 192 Kbps, CBR - английский
    Код:

    Общее
    Полное имя : E:Странная любовь Марты Айверс (1946) DVDRip.avi
    Формат : AVI
    Формат/Информация : Audio Video Interleave
    Размер файла : 1, 37 Гбайт
    Продолжительность : 1 ч. О таком странном сюжете не догадывалась даже Настя Каменских. 55 м.
    Общий поток : 1688 Кбит/сек
    Программа кодирования : VirtualDubMod 1.5.4.1 (build 2178/release)
    Библиотека кодирования : VirtualDubMod build 2178/release
    Видео
    Идентификатор : 0
    Формат : MPEG-4 Visual
    Профиль формата : Advanced Simple@L5
    Параметр BVOP формата : 1
    Параметр QPel формата : Нет
    Параметр GMC формата : Без точки перехода
    Параметр матрицы формата : Выборочная
    Идентификатор кодека : XVID
    Идентификатор кодека/Подсказка : XviD
    Продолжительность : 1 ч. 55 м.
    Битрейт : 1294 Кбит/сек
    Ширина : 704 пикселя
    Высота : 528 пикселей
    Соотношение сторон : 4:3
    Частота кадров : 25, 000 кадров/сек
    Цветовое пространство : YUV
    Субдискретизация насыщенности : 4:2:0
    Битовая глубина : 8 бит
    Тип развёртки : Прогрессивная
    Метод сжатия : С потерями
    Бит/(Пиксели*Кадры) : 0.139
    Размер потока : 1, 05 Гбайт (77%)
    Библиотека кодирования : XviD 1.2.0.dev47 (UTC 2006-11-01)
    Аудио #1
    Идентификатор : 1
    Формат : MPEG Audio
    Версия формата : Version 1
    Профиль формата : Layer 3
    Режим : Joint stereo
    Расширение режима : MS Stereo
    Идентификатор кодека : 55
    Идентификатор кодека/Подсказка : MP3
    Продолжительность : 1 ч. 55 м.
    Вид битрейта : Постоянный
    Битрейт : 192 Кбит/сек
    Каналы : 2 канала
    Частота : 48, 0 КГц
    Метод сжатия : С потерями
    Размер потока : 159 Мбайт (11%)
    Выравнивание : Соединение по промежуткам
    Продолжительность промежутка : 80 мс. (2, 00 видеокадра)
    Время предзагрузки промежутка : 504 мс.
    Библиотека кодирования : LAME3.97
    Настройки программы : -m j -V 4 -q 2 -lowpass 18.6 -b 192
    Аудио #2
    Идентификатор : 2
    Формат : MPEG Audio
    Версия формата : Version 1
    Профиль формата : Layer 3
    Режим : Joint stereo
    Расширение режима : MS Stereo
    Идентификатор кодека : 55
    Идентификатор кодека/Подсказка : MP3
    Продолжительность : 1 ч. 55 м.
    Вид битрейта : Постоянный
    Битрейт : 192 Кбит/сек
    Каналы : 2 канала
    Частота : 48, 0 КГц
    Метод сжатия : С потерями
    Размер потока : 159 Мбайт (11%)
    Выравнивание : Соединение по промежуткам
    Продолжительность промежутка : 80 мс. (2, 00 видеокадра)
    Время предзагрузки промежутка : 504 мс.
    Библиотека кодирования : LAME3.97
    Настройки программы : -m j -V 4 -q 2 -lowpass 18.6 -b 192


    Скриншоты для ознакомления




    Онлайн видео Странная любовь Марты Айверс



    Странная любовь Марты Айверс/The Strange Love of Martha Ivers (1946) DVDRip
    загрузка...
    Рейтинг →
     (голосов: 1, оценка 5/5, голосовать можно 1 раз )

    Другие торренты по теме:

  • Discovery. Самая странная погода на земле / Strangest Weather On Earth (2013) HDTVRip [H.264 / 720p] [1-10 серия из 10]
  • Странная история Ольги О / La strana storia di Olga «O» (1995) VHSRipскачать через торрент бесплатно
  • Странная парочка / The Odd Couple (2015) HDTVRip (сезон 1, серии 1-12 из 12) скачать через торрент бесплатно
  • Странная магия / Strange Magic (2015) WEB-DL [H.264 / 1080p-LQ] скачать через торрент бесплатно
  • Странная магия / Strange Magic (2015) WEB-DL [720p] скачать через торрент бесплатно
  • Странная магия / Strange Magic (2015) WEB-DLRip скачать через торрент бесплатно
  • Странные чары / Странная магия / Strange Magic (2015) WEBRip [H.264] [MP4|960х400] скачать через торрент бесплатно
  • Венди Сузуки, Билли Фицпатрик | Странная девочка, которая влюбилась в мозг (2016) [FB2] скачать через торрент бесплатно


    • Комментарии (0):

      Информация

      Информация

        Посетители, находящиеся в группе Гости, не могут оставлять комментарии в данной новости.

        ↓ Меню




        ↓ Опрос

        Вы добавили сайт в закладки?
        Да
        Нет


        Top 10 за месяц (Фильмы)