.
Авторизация | Регистрация
Хочешь лучшие торренты? Добавь свой email!
Добавить

Торрент скачать бесплатно

» » Агирре, Гнев Божий / Aguirre, der Zorn Gottes (1972) BDRip [H.264] торрент скачать бесплатно




    Агирре, Гнев Божий / Aguirre, der Zorn Gottes (1972) BDRip [H.264] торрент скачать бесплатно

    Опубликовал: Админ | Дата: 21-03-2016, 04:00 | Просмотров: 111

    Производство: Германия (ФРГ), Перу, Мексика /Werner Herzog Filmproduktion, Hessischer Rundfunk (HR)/
    Жанр: Драма, приключения, история
    Режиссер: Вернер Херцог

    Актеры
    Клаус Кински, Рэй Гуэрра, Дель Негро, Хелена Рохо, Сесилия Ривера, Даниэль Адес, Алехандро Репуллес, Армандо Поланьа, Эдвард Роулэнд, Питер Берлинг и др.

    Описание

    Фильм немецкого режиссёра Вернера Херцога об испанской экспедиции 1560—1561 годов в поисках Эльдорадо.
    Большой отряд испанцев-конкистадоров и перуанских индейцев (всего около двух с половиной тысяч человек) под командованием Гонсало Писарро выходит из Перу с целью достичь мифической золотой страны Эльдорадо. Перевалив через Анды и оказавшись в джунглях, Писарро обнаруживает, что с таким большим отрядом ему дальше не пройти. Он посылает вниз по реке несколько десятков человек на плотах под командованием Педро де Урсуа, в помощники которому определяет Лопе де Агирре, чтобы те разведали путь и вернулись…

    Продолжительность: 01: 34: 36
    Качество видео: BDRip
    Перевод: Многоголосый закадровый
    Язык субтитров: Русский
    Вид субтитров: Вшитые, отключаемые
    Видео: AVC/H.264, 1152x622, ~4 196 kbps
    Аудио 1: Русский: AC3, 2 ch, 192 Kbps -MVO (Triumph Video)
    Аудио 2: Английский: AC3, 2 ch, 256 Kbps - MVO
    Код:

    Общее
    Уникальный идентификатор : 184612981718683123365621086402067102072 (0x8AE32ABDFC8534B2A01999E0DD7CF978)
    Полное имя : J:-Клаус КинскиАгирре, Гнев Божий. 1972.mkv
    Формат : Matroska
    Версия формата : Version 4/Version 2
    Размер файла : 3, 13 Гбайт
    Продолжительность : 1 ч. 34 м.
    Общий поток : 4736 Кбит/сек
    Название фильма : Release for Topmost
    Дата кодирования : UTC 2016-03-20 12:59:57
    Программа кодирования : mkvmerge v6.2.0 (\'Promised Land\') built on Apr 28 2013 12:22:01
    Библиотека кодирования : libebml v1.3.0 + libmatroska v1.4.0
    Attachment : Yes
    Видео
    Идентификатор : 1
    Формат : AVC
    Формат/Информация : Advanced Video Codec
    Профиль формата :High@L5.0
    Параметр CABAC формата : Да
    Параметр ReFrames формата : 5 кадров
    Идентификатор кодека : V_MPEG4/ISO/AVC
    Битрейт : 4193 Кбит/сек
    Ширина : 1152 пикселя
    Высота : 622 пикселя
    Соотношение сторон : 1, 85:1
    Режим частоты кадров : Переменный
    Частота кадров в оригинале : 23, 976 кадра/сек
    Цветовое пространство : YUV
    Субдискретизация насыщенности : 4:2:0
    Битовая глубина : 8 бит
    Тип развёртки : Прогрессивная
    Заголовок : Агирре, Гнев Божий. 1972 (Release for Topmost)
    Библиотека кодирования : x264 core 146 r2538bm 121396c
    Настройки программы : cabac=1/ref=5/deblock=1:0:0/analyse=0x3:0x113/me=umh/subme=8/psy=1/psy_rd=1.00:0.00/mixed_ref=1/me_range=16/chroma_me=1/trellis=1/8x8dct=1/cqm=0/deadzone=21, 11/fast_pskip=1/chroma_qp_offset=-2/threads=3/lookahead_threads=1/sliced_threads=0/nr=0/decimate=1/interlaced=0/bluray_compat=0/constrained_intra=0/bframes=3/b_pyramid=2/b_adapt=2/b_bias=0/direct=3/weightb=1/open_gop=0/weightp=2/keyint=250/keyint_min=23/scenecut=40/intra_refresh=0/rc_lookahead=50/rc=crf/mbtree=1/crf=19.7/qcomp=0.60/qpmin=0/qpmax=69/qpstep=4/ip_ratio=1.40/aq=1:1.00
    Default : Да
    Forced : Нет
    Аудио #1
    Идентификатор : 2
    Формат : AC-3
    Формат/Информация : Audio Coding 3
    Расширение режима : CM (complete main)
    Параметр Endianness формата : Big
    Идентификатор кодека : A_AC3
    Продолжительность : 1 ч. 34 м.
    Вид битрейта : Постоянный
    Битрейт : 192 Кбит/сек
    Каналы : 2 канала
    Расположение каналов : Front: L R
    Частота : 48, 0 КГц
    Битовая глубина : 16 бит
    Метод сжатия : С потерями
    Задержка видео : 2 с. Прикольно все это наверно придумал Кравчук потратив достаточно времени. 500 мс.
    Размер потока : 130 Мбайт (4%)
    Заголовок : AC3, 2 ch, 192 kbps - MVO (Triumph Video)
    Язык : Russian
    Default : Да
    Forced : Нет
    Аудио #2
    Идентификатор : 3
    Формат : AC-3
    Формат/Информация : Audio Coding 3
    Расширение режима : CM (complete main)
    Параметр Endianness формата : Big
    Идентификатор кодека : A_AC3
    Продолжительность : 1 ч. 34 м.
    Вид битрейта : Постоянный
    Битрейт : 256 Кбит/сек
    Каналы : 2 канала
    Расположение каналов : Front: L R
    Частота : 48, 0 КГц
    Битовая глубина : 16 бит
    Метод сжатия : С потерями
    Задержка видео : 2 с. 500 мс.
    Размер потока : 173 Мбайт (5%)
    Язык : English
    Default : Нет
    Forced : Нет
    Текст
    Идентификатор : 4
    Формат : UTF-8
    Идентификатор кодека : S_TEXT/UTF8
    Идентификатор кодека/Информация : UTF-8 Plain Text
    Язык : Russian
    Default : Нет
    Forced : Нет
    Меню
    00:00:00.000 : en:00:00:00.000
    00:05:15.565 : en:00:05:15.565
    00:09:46.503 : en:00:09:46.503
    00:13:35.023 : en:00:13:35.023
    00:23:05.759 : en:00:23:05.759
    00:28:45.015 : en:00:28:45.015
    00:35:20.452 : en:00:35:20.452
    00:41:54.554 : en:00:41:54.554
    00:47:56.499 : en:00:47:56.499
    00:51:30.212 : en:00:51:30.212
    00:57:18.852 : en:00:57:18.852
    01:02:39.923 : en:01:02:39.923
    01:05:43.731 : en:01:05:43.731
    01:11:15.897 : en:01:11:15.897
    01:14:24.794 : en:01:14:24.794
    01:17:17.132 : en:01:17:17.132
    01:20:28.574 : en:01:20:28.574
    01:26:07.829 : en:01:26:07.829


    Скриншоты для ознакомления




    Онлайн видео Агирре, Гнев Божий



    Агирре, Гнев Божий/Aguirre, der Zorn Gottes (1972) BDRip [H.264]
    загрузка...
    Рейтинг →
     (голосов: 1, оценка 3/5, голосовать можно 1 раз )

    Другие торренты по теме:



      Комментарии (0):

      Информация

      Информация

        Посетители, находящиеся в группе Гости, не могут оставлять комментарии в данной новости.

        ↓ Меню




        ↓ Опрос

        Вы добавили сайт в закладки?
        Да
        Нет


        Top 10 за месяц (Фильмы)