.
Авторизация | Регистрация
Хочешь лучшие торренты? Добавь свой email!
Добавить

Торрент скачать бесплатно

» » Гудини и Дойл / Houdini and Doyle (2016) HDTVRip (сезон 1, серия 1 из 10) OMSKBIRD records (обновляемая) торрент скачать бесплатно




    Гудини и Дойл / Houdini and Doyle (2016) HDTVRip (сезон 1, серия 1 из 10) OMSKBIRD records (обновляемая) торрент скачать бесплатно

    Опубликовал: Админ | Дата: 19-03-2016, 04:00 | Просмотров: 39

    Производство: Великобритания, Канада
    Жанр: Детектив, Криминал, Драма
    Режиссер: Стивен Хопкинс, Роберт Либерман, Дэниэл О’Хара

    Актеры
    Стивен Мэнгэн, Майкл Уэстон, Ребекка Лиддьярд, Эмили Кэри, Noah Jupe, Адам Нагаитис, Тим МакИннерни, CarneyPat, Джерри-Джейн Пирс, Кит Ломас и др.

    Описание

    Великий иллюзионист своего века Гарри Гудини и не менее великий детективный писатель сэр Артур Конан Дойл, достигнув богатства и высот популярности, решают стать коллегами по новому ремеслу. Оба заинтересованы в раскрытии преступлений, где замешаны сверхъестественные мотивы. И это при том, что Дойл свято верит в мистику, а Гудини категорически её отрицает.

    Дата мировой премьеры: 13 марта 2016
    Продолжительность: ~ 00: 45: 00 серия
    Качество видео: HDTVRip
    Перевод: Многоголосый закадровый, профессиональный |OMSKBIRD records
    Вид субтитров: Отдельным файлом
    Язык субтитров: Русский, Английский
    Реклама: присутствуют голосовые вставки рекламы.
    Видео: Xvid, 720x400 (1.80: 1), , ~1513 kbps
    Аудио # 1: MP3, 2 ch, 192 kbps, CBR - многоголосый закадровый
    Аудио # 2: MP3, 2 ch, 192 kbps, CBR - оригинал
    Код:

    Общее
    Полное имя : G:FilmsHoudini.and.Doyle.S01.400p.HDTVRipHoudini.and.Doyle.S01E01.400p.HDTVRip.OmskBird.avi
    Формат : AVI
    Формат/Информация : Audio Video Interleave
    Размер файла : 613 Мбайт
    Продолжительность : 44 м.
    Общий поток : 1913 Кбит/сек
    Программа кодирования : VirtualDubMod 1.5.10.3 (build 2550/release)
    Библиотека кодирования : VirtualDubMod build 2550/release
    Видео
    Идентификатор : 0
    Формат : MPEG-4 Visual
    Профиль формата : Advanced Simple@L5
    Параметр BVOP формата : 1
    Параметр QPel формата : Нет
    Параметр GMC формата : Без точки перехода
    Параметр матрицы формата : Default (MPEG)
    Идентификатор кодека : XVID
    Идентификатор кодека/Подсказка : XviD
    Продолжительность : 44 м.
    Битрейт : 1514 Кбит/сек
    Ширина : 720 пикселей
    Высота : 400 пикселей
    Соотношение сторон : 16:9
    Частота кадров : 25, 000 кадров/сек
    Цветовое пространство : YUV
    Субдискретизация насыщенности : 4:2:0
    Битовая глубина : 8 бит
    Тип развёртки : Прогрессивная
    Метод сжатия : С потерями
    Бит/(Пиксели*Кадры) : 0.210
    Размер потока : 486 Мбайт (79%)
    Библиотека кодирования : XviD 73
    Аудио #1
    Идентификатор : 1
    Формат : MPEG Audio
    Версия формата : Version 1
    Профиль формата : Layer 3
    Режим : Joint stereo
    Расширение режима : MS Stereo
    Идентификатор кодека : 55
    Идентификатор кодека/Подсказка : MP3
    Продолжительность : 44 м.
    Вид битрейта : Постоянный
    Битрейт : 192 Кбит/сек
    Каналы : 2 канала
    Частота : 48, 0 КГц
    Метод сжатия : С потерями
    Размер потока : 61, 6 Мбайт (10%)
    Выравнивание : Соединение по промежуткам
    Продолжительность промежутка : 40 мс. (1, 00 видеокадр)
    Время предзагрузки промежутка : 504 мс.
    Аудио #2
    Идентификатор : 2
    Формат : MPEG Audio
    Версия формата : Version 1
    Профиль формата : Layer 3
    Режим : Joint stereo
    Расширение режима : MS Stereo
    Идентификатор кодека : 55
    Идентификатор кодека/Подсказка : MP3
    Продолжительность : 44 м.
    Вид битрейта : Постоянный
    Битрейт : 192 Кбит/сек
    Каналы : 2 канала
    Частота : 48, 0 КГц
    Метод сжатия : С потерями
    Размер потока : 61, 6 Мбайт (10%)
    Выравнивание : Соединение по промежуткам
    Продолжительность промежутка : 40 мс. (1, 00 видеокадр)
    Время предзагрузки промежутка : 504 мс.


    Скриншоты для ознакомления




    Онлайн видео Гудини и Дойл



    Гудини и Дойл/Houdini and Doyle (2016) HDTVRip (сезон 1, серия 1 из 10) OMSKBIRD records (обновляемая)
    загрузка...
    Рейтинг →
     (голосов: 1, оценка 5/5, голосовать можно 1 раз )

    Другие торренты по теме:

  • Гудини и Дойл / Houdini and Doyle (2016) HDTVRip [H.264 / 720p-LQ] (сезон 1, серия 1 из 10) NewStudio (обновляемая)
  • Гудини и Дойл / Houdini and Doyle (2016) HDTV [H.264 / 720p-LQ] (сезон 1, серия 1 из 10) OMSKBIRD records (обновляемая)


    • Комментарии (0):

      Информация

      Информация

        Посетители, находящиеся в группе Гости, не могут оставлять комментарии в данной новости.

        ↓ Меню




        ↓ Опрос

        Вы добавили сайт в закладки?
        Да
        Нет


        Top 10 за месяц (Фильмы)