.
Авторизация | Регистрация
Хочешь лучшие торренты? Добавь свой email!
Добавить

Торрент скачать бесплатно

» » Неповторимая весна (1957) SATRip [H.264] торрент скачать бесплатно




    Неповторимая весна (1957) SATRip [H.264] торрент скачать бесплатно

    Опубликовал: Админ | Дата: 17-03-2016, 04:00 | Просмотров: 47

    Производство: СССР, Мосфильм
    Жанр: Киноповесть
    Режиссер: Александр Столпер

    Актеры
    Евгения Козырева, Изольда Извицкая, Александр Михайлов (II), Иван Дмитриев, Ирина Скобцева, Виктор Шарлахов, Светлана Харитонова, Нина Дорошина, Леонид Пархоменко, Евгений Леонов, Борис Битюков, Тахир Сабиров...

    Описание

    После свадьбы молодые археологи Буровы прибыли на раскопки в пограничный район Средней Азии, где совсем недавно вспыхнула эпидемия чумы. Ряд обстоятельств, на время разлучив молодоженов, послужил веской причиной для того, чтобы мать Ани обратилась за помощью к ее отцу - генералу Новожилову, много лет назад оставившему семью...

    Релиз от: fomatash
    Продолжительность: 01: 27: 59
    Качество видео: SATRip
    Видео: AVC/H.264, 700x574@763x574, ~1676 kbps
    Аудио: MP2, 2 ch, 128 kbps, CBR
    Код:

    Общее
    Уникальный идентификатор : 214816412045504322902242076418921485485 (0xA19C22D43363DBC9954E61E2FDE854AD)
    Полное имя : D:-TTTНеповторимая весна-Sat-MG-NNM.mkv
    Формат : Matroska
    Версия формата : Version 4/Version 2
    Размер файла : 1, 11 Гбайт
    Продолжительность : 1 ч. 27 м.
    Общий поток : 1806 Кбит/сек
    Дата кодирования : UTC 2016-03-15 16:57:41
    Программа кодирования : mkvmerge v8.9.0 (\'Father Daughter\') 64bit
    Библиотека кодирования : libebml v1.3.3 + libmatroska v1.4.4
    Видео
    Идентификатор : 1
    Формат : AVC
    Формат/Информация : Advanced Video Codec
    Профиль формата :High@L4.1
    Параметр CABAC формата : Да
    Параметр ReFrames формата : 13 кадров
    Идентификатор кодека : V_MPEG4/ISO/AVC
    Продолжительность : 1 ч. 27 м.
    Битрейт : 1676 Кбит/сек
    Ширина : 700 пикселей
    Высота : 574 пикселя
    Соотношение сторон : 4:3
    Соотношение сторон в оригинале : 4:3
    Режим частоты кадров : Постоянный
    Частота кадров : 25, 000 кадров/сек
    Цветовое пространство : YUV
    Субдискретизация насыщенности : 4:2:0
    Битовая глубина : 8 бит
    Тип развёртки : Прогрессивная
    Бит/(Пиксели*Кадры) : 0.167
    Размер потока : 1, 03 Гбайт (93%)
    Заголовок : FomaTash for nnm-club.me
    Библиотека кодирования : x264 core 146 r2538 121396c
    Настройки программы : cabac=1/ref=13/deblock=1:-1:-1/analyse=0x3:0x133/me=umh/subme=9/psy=1/psy_rd=1.00:0.15/mixed_ref=1/me_range=32/chroma_me=1/trellis=2/8x8dct=1/cqm=0/deadzone=21, 11/fast_pskip=1/chroma_qp_offset=-3/threads=6/lookahead_threads=1/sliced_threads=0/nr=0/decimate=0/interlaced=0/bluray_compat=0/constrained_intra=0/bframes=9/b_pyramid=2/b_adapt=2/b_bias=0/direct=3/weightb=1/open_gop=0/weightp=2/keyint=240/keyint_min=23/scenecut=40/intra_refresh=0/rc_lookahead=40/rc=2pass/mbtree=0/bitrate=1676/ratetol=1.0/qcomp=0.60/qpmin=10/qpmax=51/qpstep=4/cplxblur=20.0/qblur=0.5/vbv_maxrate=50000/vbv_bufsize=62500/nal_hrd=none/filler=0/ip_ratio=1.40/pb_ratio=1.30/aq=1:1.00
    Язык : Russian
    Default : Да
    Forced : Нет
    Аудио
    Идентификатор : 2
    Формат : MPEG Audio
    Версия формата : Version 1
    Профиль формата : Layer 2
    Идентификатор кодека : A_MPEG/L2
    Идентификатор кодека/Подсказка : MP2
    Продолжительность : 1 ч. 27 м.
    Вид битрейта : Постоянный
    Битрейт : 128 Кбит/сек
    Каналы : 2 канала
    Частота : 48, 0 КГц
    Частота кадров : 41, 667 кадра/сек (1152 spf)
    Метод сжатия : С потерями
    Размер потока : 80, 5 Мбайт (7%)
    Заголовок : MP2-2 канала
    Язык : Russian
    Default : Да
    Forced : Нет


    Скриншоты для ознакомления




    Онлайн видео Ширли



    Неповторимая весна (1957) SATRip [H.264]
    загрузка...
    Рейтинг →
     (голосов: 1, оценка 4/5, голосовать можно 1 раз )

    Другие торренты по теме:

  • Сборная Союза - Единственная и неповторимая (2012) [FLAC|image+.cue]<Шансон> скачать через торрент бесплатно
  • Серия книг | Неповторимая [14 книг] (2014-2017) [FB2]
  • Елена Кароль | Единственная и неповторимая (2017) [FB2]


    • Комментарии (0):

      Информация

      Информация

        Посетители, находящиеся в группе Гости, не могут оставлять комментарии в данной новости.

        ↓ Меню




        ↓ Опрос

        Вы добавили сайт в закладки?
        Да
        Нет


        Top 10 за месяц (Фильмы)