.
Авторизация | Регистрация
Хочешь лучшие торренты? Добавь свой email!
Добавить

Торрент скачать бесплатно

» » Комната / The Room (2003) HDRip [VO] торрент скачать бесплатно




    Комната / The Room (2003) HDRip [VO] торрент скачать бесплатно

    Опубликовал: Админ | Дата: 15-03-2016, 04:00 | Просмотров: 217

    Производство: США
    Жанр: Драма, Комедия
    Режиссер: Томми Вайсо

    Актеры
    Томми Вайсо, Джульетт Даниэль, Грег Сестеро, Филип Халдиман, Кэролин Миннотт, Робин Пэрис, Майк Холмс, Дэн Джанджиджиан, Кайл Вогт, Грег Эллери

    Описание

    У Джонни есть всё — отличная работа, квартира в Сан-Франциско, лучший друг Марк и невеста Лиза, и близится его день рождения. Но все меняется, когда Марк и Лиза заводят роман…

    Продолжительность: 1: 39: 51
    Качество видео: HDRip
    Перевод: Одноголосый закадровый (Ze6ypo)
    Язык субтитров: Русский, английский
    Вид субтитров: Отдельным файлом
    Видео: Xvid, 704x400, ~1886 Kbps
    Аудио 1: Rus AC3, 2 ch, 192 Kbps, CBR
    Аудио 2: Eng AC3, 6 ch, 448 Kbps, CBR (Отдельным файлом)
    Код:

    Общее
    Полное имя : C:UsersUserDownloadsThe Room 2003 HDRipThe.Room.2003.hdrip_[1.46].avi
    Формат : AVI
    Формат/Информация : Audio Video Interleave
    Размер файла : 1, 46 Гбайт
    Продолжительность : 1 ч. Вот в чём загвоздка, сказал кто то из толпы, к чему не понятно. 39 м.
    Общий поток : 2087 Кбит/сек
    Программа кодирования : VirtualDubMod 1.5.10.3 |www.virtualdub-fr.org|| (build 2550/release)
    Библиотека кодирования : VirtualDubMod build 2550/release
    Видео
    Идентификатор : 0
    Формат : MPEG-4 Visual
    Профиль формата : Advanced Simple@L5
    Параметр BVOP формата : 1
    Параметр QPel формата : Нет
    Параметр GMC формата : Без точки перехода
    Параметр матрицы формата : Выборочная
    Идентификатор кодека : XVID
    Идентификатор кодека/Подсказка : XviD
    Продолжительность : 1 ч. 39 м.
    Битрейт : 1886 Кбит/сек
    Ширина : 704 пикселя
    Высота : 400 пикселей
    Соотношение сторон : 16:9
    Частота кадров : 23, 976 (23976/1000) кадра/сек
    Цветовое пространство : YUV
    Субдискретизация насыщенности : 4:2:0
    Битовая глубина : 8 бит
    Тип развёртки : Прогрессивная
    Метод сжатия : С потерями
    Бит/(Пиксели*Кадры) : 0.279
    Размер потока : 1, 32 Гбайт (90%)
    Библиотека кодирования : XviD 73
    Аудио
    Идентификатор : 1
    Формат : AC-3
    Формат/Информация : Audio Coding 3
    Расширение режима : CM (complete main)
    Параметр Endianness формата : Big
    Идентификатор кодека : 2000
    Продолжительность : 1 ч. 39 м.
    Вид битрейта : Постоянный
    Битрейт : 192 Кбит/сек
    Каналы : 2 канала
    Расположение каналов : Front: L R
    Частота : 48, 0 КГц
    Частота кадров : 31, 250 кадров/сек (1536 spf)
    Метод сжатия : С потерями
    Размер потока : 137 Мбайт (9%)
    Выравнивание : Разделение по промежуткам
    Продолжительность промежутка : 42 мс. (1, 00 видеокадр)
    Время предзагрузки промежутка : 500 мс.


    Онлайн видео Комната



    Комната/The Room (2003) HDRip [VO]
    загрузка...
    Рейтинг →
     (голосов: 1, оценка 5/5, голосовать можно 1 раз )

    Другие торренты по теме:

  • Комната / Room (2015) DVDScr скачать через торрент бесплатно
  • Комната / Room (2015) DVDScr скачать через торрент бесплатно
  • Комната / Room (2015) DVDScr
  • Комната / Room (2015) WEB-DLRip
  • Комната / Room (2015) WEB-DL [H.264 / 1080p-LQ]
  • Комната / Room (2015) BDRip [H.264 / 1080p]
  • Комната / Room (2015) BDRemux [H.264 / 1080p] [EN / EN, Sp Sub]
  • Комната / Room (2015) BDRemux [H.264 / 1080p]


    • Комментарии (0):

      Информация

      Информация

        Посетители, находящиеся в группе Гости, не могут оставлять комментарии в данной новости.

        ↓ Меню




        ↓ Опрос

        Вы добавили сайт в закладки?
        Да
        Нет


        Top 10 за месяц (Фильмы)