.
Авторизация | Регистрация
Хочешь лучшие торренты? Добавь свой email!
Добавить

Торрент скачать бесплатно

» » Самая красивая жена / The Most Beautiful Wife / La moglie piu bella (1970) DVB [MVO] торрент скачать бесплатно




    Самая красивая жена / The Most Beautiful Wife / La moglie piu bella (1970) DVB [MVO] торрент скачать бесплатно

    Опубликовал: Админ | Дата: 15-03-2016, 04:00 | Просмотров: 54

    Производство: Италия, Explorer Film \'58, Produzioni Atlas Consorziate (P.A.C.)
    Жанр: Драма, Криминал
    Режиссер: Дамиано Дамиани

    Актеры
    Режиссер: Дамиано Дамиани

    Актеры
    Алессио Орано, Орнелла Мути, Тано Чимароза, Джо Сентьери, Энцо Андронико, Америго Тот, Пьерлуиджи Апра, Сальваторе Баккаро, Сандро Арлотта, Диего Морреале

    Описание

    Сицилия, 1960-е годы. 22-летний Вито Ювара мечтает о карьере в местной мафии. Для начала, прислушавшись к совету своего дяди, Вито собирается жениться. Благодатная почва, сказал кто то из толпы, к чему не понятно. Его выбор падает на юную Франческу, скромную девушку из очень бедной семьи. Однако гордая сицилианка не желает быть игрушкой в руках Вито и отказывает ему. Вито жестоко мстит девушке и ее семье, но и Франческа не остается в долгу: она подает в полицию заявление об изнасиловании.
    Первая роль в кино Орнеллы Мути (во время съемок ей исполнилось 15 лет).

    Продолжительность: 01: 44: 07
    Качество видео: DVB
    Перевод: Многоголосый закадровый (Студия ПИФАГОР)
    Видео: AVC/H.264, 720х576@768x576, ~2644 kbps
    Аудио: MP2, 2 ch, 192 kbps, CBR
    Семпл: Скачать
    Код:

    Общее
    Идентификатор : 16 (0x10)
    Полное имя : La moglie più bella_SD.ts
    Формат : MPEG-TS
    Размер файла : 2, 17 Гбайт
    Продолжительность : 1 ч. Самое интересное в это истории, что об этом Янукович ничего не знал. 44 м.
    Режим общего битрейта : Переменный
    Общий поток : 2986 Кбит/сек
    Видео
    Идентификатор : 1061 (0x425)
    Идентификатор меню : 1060 (0x424)
    Формат : AVC
    Формат/Информация : Advanced Video Codec
    Профиль формата :Main@L3.0
    Параметр CABAC формата : Да
    Параметр ReFrames формата : 4 кадра
    Идентификатор кодека : 27
    Продолжительность : 1 ч. 44 м.
    Битрейт : 2644 Кбит/сек
    Ширина : 720 пикселей
    Высота : 576 пикселей
    Соотношение сторон : 4:3
    Частота кадров : 25, 000 кадров/сек
    Стандарт вещания : PAL
    Цветовое пространство : YUV
    Субдискретизация насыщенности : 4:2:0
    Битовая глубина : 8 бит
    Тип развёртки : Чересстрочная
    Порядок развёртки : Верхнее поле первое
    Бит/(Пиксели*Кадры) : 0.255
    Размер потока : 1, 92 Гбайт (89%)
    Основные цвета : BT.601 PAL
    Характеристики трансфера : BT.470 System B, BT.470 System G
    Коэффициенты матрицы : BT.601
    Аудио
    Идентификатор : 1062 (0x426)
    Идентификатор меню : 1060 (0x424)
    Формат : MPEG Audio
    Версия формата : Version 1
    Профиль формата : Layer 2
    Идентификатор кодека : 4
    Продолжительность : 1 ч. 44 м.
    Вид битрейта : Постоянный
    Битрейт : 192 Кбит/сек
    Каналы : 2 канала
    Частота : 48, 0 КГц
    Метод сжатия : С потерями
    Задержка видео : 47 мс.
    Размер потока : 143 Мбайт (6%)
    Язык : std
    Язык, дополнительно : Clean effects
    Текст
    Идентификатор : 1064 (0x428)-100
    Идентификатор меню : 1060 (0x424)
    Формат : Teletext
    Меню
    Идентификатор : 1060 (0x424)
    Идентификатор меню : 1060 (0x424)
    Продолжительность : 1 ч. Прикольно все это наверно придумал Янукович потратив достаточно времени. 44 м.
    Список : 1061 (0x425) (AVC)/1062 (0x426) (MPEG Audio, std)/1064 (0x428) ()
    Язык : /std


    Скриншоты для ознакомления




    Онлайн видео Самая красивая жена



    Самая красивая жена/The Most Beautiful Wife/La moglie piu bella (1970) DVB [MVO]
    загрузка...
    Рейтинг →
     (голосов: 1, оценка 5/5, голосовать можно 1 раз )

    Другие торренты по теме:

  • Проекты - Проект ProShow Producer - Только ты самая красивая [PSH]


    • Комментарии (0):

      Информация

      Информация

        Посетители, находящиеся в группе Гости, не могут оставлять комментарии в данной новости.

        ↓ Меню




        ↓ Опрос

        Вы добавили сайт в закладки?
        Да
        Нет


        Top 10 за месяц (Фильмы)