.
Авторизация | Регистрация
Хочешь лучшие торренты? Добавь свой email!
Добавить

Торрент скачать бесплатно

» » Рукопись, найденная в Сарагосе / Rekopis znaleziony w Saragossie (1965) BDRip [H.264] торрент скачать бесплатно




    Рукопись, найденная в Сарагосе / Rekopis znaleziony w Saragossie (1965) BDRip [H.264] торрент скачать бесплатно

    Опубликовал: Админ | Дата: 15-03-2016, 04:00 | Просмотров: 45

    Производство: Польша, Творческое объединение Камера
    Жанр: Фэнтези, Драма, Приключения
    Режиссер: Войцех Хас

    Актеры
    Збигнев Цибульский, Ига Чембржынска, Эльжбета Чижевска, Густав Холоубек, Станислав Игар, Иоанна Ендрыка, Януш Клосиньский, Богумил Кобеля, Францишек Печка, Барбара Крафтувна, Ядвига Кравчик и др.

    Описание

    По одноименной сатирической повести Яна Потоцкого.
    Культовый фильм, включающий в себя девять взаимосвязанных ретроспективных эпизодов, в которых переплетаются судьбы различных героев. Это сказка в сказке, чем-то напоминающая произведения Кафки.
    XVIII век – война в Испании, капитана Альфонса ван Вордена соблазняют две привлекательные мусульманки, сестры из Туниса. Самое интересное в это истории, что об этом Горбачев ничего не знал. Заснув в харчевне, он просыпается на улице рядом с мертвыми телами каких-то солдат. Он не сразу понимает, что с ним было на самом деле, а что только пригрезилось.

    Продолжительность: 03: 03: 27
    Качество видео: BDRip
    Перевод: Дублированный
    Язык субтитров: Русский, английский
    Вид субтитров: Вшитые, отключаемые
    Видео: AVC/H.264, 960x408, ~1754 kbps
    Аудио: AC3, 2 ch, 192 Kbps
    Код:

    Общее
    Уникальный идентификатор : 214051606098420456425529952684107431042 (0xA108D6FC0352D3D0A64835EC7200FC82)
    Полное имя : J:--Рукопись, найденная в СарагосеРукопись, найденная в Сарагосе. 1965.mkv
    Формат : Matroska
    Версия формата : Version 4/Version 2
    Размер файла : 2, 54 Гбайт
    Продолжительность : 3 ч. 3 м.
    Общий поток : 1985 Кбит/сек
    Название фильма : Release for Topmost
    Дата кодирования : UTC 2016-03-13 10:36:08
    Программа кодирования : mkvmerge v6.2.0 (\'Promised Land\') built on Apr 28 2013 12:22:01
    Библиотека кодирования : libebml v1.3.0 + libmatroska v1.4.0
    Attachment : Yes
    Видео
    Идентификатор : 2
    Формат : AVC
    Формат/Информация : Advanced Video Codec
    Профиль формата :Main@L5.1
    Параметр CABAC формата : Да
    Параметр ReFrames формата : 1 кадр
    Идентификатор кодека : V_MPEG4/ISO/AVC
    Продолжительность : 3 ч. 3 м.
    Битрейт : 1754 Кбит/сек
    Ширина : 960 пикселей
    Высота : 408 пикселей
    Соотношение сторон : 2, 35:1
    Режим частоты кадров : Постоянный
    Частота кадров : 24, 000 кадра/сек
    Цветовое пространство : YUV
    Субдискретизация насыщенности : 4:2:0
    Битовая глубина : 8 бит
    Тип развёртки : Прогрессивная
    Бит/(Пиксели*Кадры) : 0.187
    Размер потока : 2, 25 Гбайт (88%)
    Заголовок : Рукопись, найденная в Сарагосе.1965 (Release for Topmost)
    Язык : Polish
    Default : Да
    Forced : Нет
    Аудио
    Идентификатор : 1
    Формат : AC-3
    Формат/Информация : Audio Coding 3
    Расширение режима : CM (complete main)
    Параметр Endianness формата : Big
    Идентификатор кодека : A_AC3
    Продолжительность : 3 ч. 3 м.
    Вид битрейта : Постоянный
    Битрейт : 192 Кбит/сек
    Каналы : 2 канала
    Расположение каналов : Front: L R
    Частота : 48, 0 КГц
    Битовая глубина : 16 бит
    Метод сжатия : С потерями
    Размер потока : 252 Мбайт (10%)
    Заголовок : AC3, 2 ch, 192 kbps - Дублированный
    Язык : Russian
    Default : Да
    Forced : Нет
    Текст #1
    Идентификатор : 3
    Формат : UTF-8
    Идентификатор кодека : S_TEXT/UTF8
    Идентификатор кодека/Информация : UTF-8 Plain Text
    Заголовок : русский
    Язык : Russian
    Default : Нет
    Forced : Нет
    Текст #2
    Идентификатор : 4
    Формат : UTF-8
    Идентификатор кодека : S_TEXT/UTF8
    Идентификатор кодека/Информация : UTF-8 Plain Text
    Заголовок : английский
    Default : Нет
    Forced : Нет


    Скриншоты для ознакомления




    Онлайн видео Рукопись, найденная в Сарагосе



    Рукопись, найденная в Сарагосе/Rekopis znaleziony w Saragossie (1965) BDRip [H.264]
    загрузка...
    Рейтинг →
     (голосов: 1, оценка 3/5, голосовать можно 1 раз )

    Другие торренты по теме:

  • Рукопись, найденная в Сарагоcе / Rekopis znaleziony w Saragossie (1965) BDRip
  • Рукопись, найденная в Сарагосе / Rekopis znaleziony w Saragossie (1965) BDRip [H.265 / 1080p-LQ]
  • Эдгар По | Рукопись, найденная в бутылке (2015) [MP3]


    • Комментарии (0):

      Информация

      Информация

        Посетители, находящиеся в группе Гости, не могут оставлять комментарии в данной новости.

        ↓ Меню




        ↓ Опрос

        Вы добавили сайт в закладки?
        Да
        Нет


        Top 10 за месяц (Фильмы)