.
Авторизация | Регистрация
Хочешь лучшие торренты? Добавь свой email!
Добавить

Торрент скачать бесплатно

» » Бен Гур / Ben Hur (1959) HDTVRip [H.264 / 720p] торрент скачать бесплатно




    Бен Гур / Ben Hur (1959) HDTVRip [H.264 / 720p] торрент скачать бесплатно

    Опубликовал: Админ | Дата: 15-03-2016, 04:00 | Просмотров: 160

    Производство: США, Metro -Goldwyn-Mayer (MGM)
    Жанр: Драма, История
    Режиссер: Уильям Уайлер

    Актеры
    Чарльтон Хестон, Джек Хоукинс, Хая Харарет, Стивен Бойд, Хью Гриффит, Марта Скотт, Кэти О\'Доннелл, Финлей Карри, Фрэнк Фринг, Теренс Лонгдон и др

    Описание

    Действие фильма, снятого по роману Льюиса Уоллеса, происходит в Палестине во времена Христа. Два друга, еврей Иуда Бен Гур и римлянин Мессала встречаются после долгой разлуки взрослыми людьми и понимают, что дружба уже невозможна. Иуда сочувствует борьбе своего народа за освобождение, а Мессала требует чтобы тот предал своих соотечественников. Заключение, галеры, сражения, морские битвы и путешествия, эпизоды, связанные с зарождением христианства, - все вышеназванное присутствует в удивительно зрелищном фильме, получившем 11 Оскаров. Гонки на колесницах считаются самой захватывающей сценой в истории кинематографа.

    Продолжительность: 03: 31: 40
    Качество видео: HDTVRip 720p
    Перевод: Дублированный/Многоголосый закадровый профессиональный
    Язык субтитров: Русский, Английский
    Вид субтитров: Вшитые отключаемые
    Видео: AVC/H.264, 1280x462, ~4857 Kbps, 25 fps
    Аудио 1: AC3, 2 ch, 192 kbps, 48 kHz, CBR - Русский дублированный (Варус Видео)
    Аудио 2: AC3, 2 ch, 192 kbps, 48 kHz, CBR - Русский многоголосый (DVD Magic)
    Аудио 3: AC3, 6 ch, 448 kbps, 48 kHz, CBR - Английский (оригинал)
    Аудио 4: AC3, 2 ch, 96 kbps, 48 kHz, CBR - Английский (комментарии)
    Код:

    General
    Unique ID : 238125003802918878527063316887566160690 (0xB3253520E4427B85A905C445B5461332)
    Complete name : G:Download_GBen_Hur_1959_720p_HDTV_Dub.mkv
    Format : Matroska
    Format version : Version 1
    File size : 6.89 GiB
    Duration : 3h 22mn
    Overall bit rate mode : Variable
    Overall bit rate : 4 857 Kbps
    Encoded date : UTC 2010-09-06 11:38:37
    Writing application : mkvmerge v2.3.0 (\'Freak U\') built on Sep 8 2008 18:32:16
    Writing library : libebml v0.7.7 + libmatroska v0.8.1
    Video
    ID : 1
    Format : AVC
    Format/Info : Advanced Video Codec
    Format profile :High@L4.1
    Format settings, CABAC : Yes
    Format settings, ReFrames : 5 frames
    Muxing mode : Container profile=@0.0
    Codec ID : V_MPEG4/ISO/AVC
    Duration : 3h 22mn
    Bit rate : 3 832 Kbps
    Width : 1 280 pixels
    Height : 462 pixels
    Display aspect ratio : 2.771
    Frame rate mode : Constant
    Frame rate : 25.000 fps
    Color space : YUV
    Chroma subsampling : 4:2:0
    Bit depth : 8 bits
    Scan type : Progressive
    Bits/(Pixel*Frame) : 0.259
    Stream size : 5.43 GiB (79%)
    Writing library : x264 core 79 r1354M 636f98f
    Encoding settings : cabac=1/ref=5/deblock=1:-3:-3/analyse=0x3:0x113/me=umh/subme=9/psy=1/psy_rd=1.3:0.1/mixed_ref=1/me_range=32/chroma_me=1/trellis=2/8x8dct=1/cqm=0/deadzone=21, 11/chroma_qp_offset=-3/threads=6/nr=0/decimate=1/mbaff=0/constrained_intra=0/bframes=5/b_pyramid=0/b_adapt=2/b_bias=0/direct=3/wpredb=1/wpredp=2/keyint=250/keyint_min=25/scenecut=40/rc=cqp/mbtree=0/qp=18/ip_ratio=1.40/pb_ratio=1.30/aq=0
    Default : Yes
    Forced : No
    Audio #1
    ID : 2
    Format : AC-3
    Format/Info : Audio Coding 3
    Mode extension : CM (complete main)
    Format settings, Endianness : Big
    Codec ID : A_AC3
    Duration : 3h 22mn
    Bit rate mode : Constant
    Bit rate : 192 Kbps
    Channel(s) : 2 channels
    Channel positions : Front: L R
    Sampling rate : 48.0 KHz
    Compression mode : Lossy
    Stream size : 279 MiB (4%)
    Title : Varus-Video
    Language : Russian
    Default : Yes
    Forced : No
    Audio #2
    ID : 3
    Format : AC-3
    Format/Info : Audio Coding 3
    Mode extension : CM (complete main)
    Format settings, Endianness : Big
    Codec ID : A_AC3
    Duration : 3h 22mn
    Bit rate mode : Constant
    Bit rate : 192 Kbps
    Channel(s) : 2 channels
    Channel positions : Front: L R
    Sampling rate : 48.0 KHz
    Compression mode : Lossy
    Stream size : 279 MiB (4%)
    Title : DVD Magic
    Language : Russian
    Default : No
    Forced : No
    Audio #3
    ID : 4
    Format : AC-3
    Format/Info : Audio Coding 3
    Mode extension : CM (complete main)
    Format settings, Endianness : Big
    Codec ID : A_AC3
    Duration : 3h 22mn
    Bit rate mode : Constant
    Bit rate : 448 Kbps
    Channel(s) : 6 channels
    Channel positions : Front: L C R, Side: L R, LFE
    Sampling rate : 48.0 KHz
    Compression mode : Lossy
    Stream size : 650 MiB (9%)
    Title : Original
    Language : English
    Default : No
    Forced : No
    Audio #4
    ID : 5
    Format : Vorbis
    Format settings, Floor : 1
    Codec ID : A_VORBIS
    Duration : 3h 22mn
    Bit rate mode : Variable
    Bit rate : 96.0 Kbps
    Channel(s) : 2 channels
    Sampling rate : 48.0 KHz
    Compression mode : Lossy
    Stream size : 139 MiB (2%)
    Title : Commentary
    Writing library : libVorbis 1.0 (UTC 2002-07-17)
    Language : English
    Default : No
    Forced : No
    Text #1
    ID : 6
    Format : UTF-8
    Codec ID : S_TEXT/UTF8
    Codec ID/Info : UTF-8 Plain Text
    Language : Russian
    Default : Yes
    Forced : No
    Text #2
    ID : 7
    Format : UTF-8
    Codec ID : S_TEXT/UTF8
    Codec ID/Info : UTF-8 Plain Text
    Language : English
    Default : No
    Forced : No


    Скриншоты для ознакомления




    Онлайн видео Бен Гур



    Бен Гур/Ben Hur (1959) HDTVRip [H.264/720p]
    загрузка...
    Рейтинг →
     (голосов: 1, оценка 4/5, голосовать можно 1 раз )

    Другие торренты по теме:

  • Тайны следствия (2016) HDTVRip (сезон 16, фильмы 1-4 из 4)


    • Комментарии (0):

      Информация

      Информация

        Посетители, находящиеся в группе Гости, не могут оставлять комментарии в данной новости.

        ↓ Меню




        ↓ Опрос

        Вы добавили сайт в закладки?
        Да
        Нет


        Top 10 за месяц (Фильмы)