.
Авторизация | Регистрация
Хочешь лучшие торренты? Добавь свой email!
Добавить

Торрент скачать бесплатно

» » Морские дьяволы. Смерч-3 (2016) SATRip (сезон 3, серии 1-2 из 16) (обновляемая) торрент скачать бесплатно




    Морские дьяволы. Смерч-3 (2016) SATRip (сезон 3, серии 1-2 из 16) (обновляемая) торрент скачать бесплатно

    Опубликовал: Админ | Дата: 15-03-2016, 04:00 | Просмотров: 95

    Производство: Россия, ООО Гамма-продакшн при участии ООО Анима Фильм Компани
    Жанр: Боевик, Приключения
    Режиссер: Александр Картохин, Максим Демченко, Владимир Койфман

    Актеры
    Олег Чернов, Дарья Юргенс, Иван Паршин, Антон Гуляев, Владимир Ярош, Дарья Циберкина, Снежана Прудько, Анатолий Друзенко, Игорь Григорьев, Олеся Ерикова.

    Описание

    Подразделение Морские дьяволы Смерч незначительно обновилось в связи с новыми запросами по противодействию преступности и повышению эффективности борьбы с терроризмом появился новый сотрудник который задействован в специализации по IT-технологиям известный в этих кругах под ником Дакар. Ему удается буквально с ходу снять все сомнения в своей компетенции и доказать свой профессионализм установив местонахождение бывшего военного, а ныне профессионального ликвидатора. Дакар вычисляет его связь с известным террористом, который готовит покушение на генерала Кочергина. Пригов предлагает использовать генерала как приманку и поручает его охрану своим бойцам.

    Продолжительность: 1 x ~ 00: 44: 00
    Качество видео: SATRip
    Реклама: Присутствуют голосовые и текстовые вставки рекламы
    Видео: Xvid, 720x400, ~1795 Kbps
    Аудио: AC-3, 2 ch, 128 Kbps
    Код:

    Общее
    Полное имя : G:Morskie diavoly.avi
    Формат : AVI
    Формат/Информация : Audio Video Interleave
    Размер файла : 600 Мбайт
    Продолжительность : 43 м.
    Общий поток : 1932 Кбит/сек
    Программа кодирования : VirtualDubMod 1.5.10.3 |www.virtualdub-fr.org|| (build 2550/release)
    Библиотека кодирования : VirtualDub build 29808/release
    Видео
    Идентификатор : 0
    Формат : MPEG-4 Visual
    Профиль формата : Advanced Simple@L5
    Параметр BVOP формата : 2
    Параметр QPel формата : Нет
    Параметр GMC формата : Без точки перехода
    Параметр матрицы формата : Default (H.263)
    Идентификатор кодека : XVID
    Идентификатор кодека/Подсказка : XviD
    Продолжительность : 43 м.
    Битрейт : 1795 Кбит/сек
    Ширина : 720 пикселей
    Высота : 400 пикселей
    Соотношение сторон : 16:9
    Частота кадров : 25, 000 кадров/сек
    Цветовое пространство : YUV
    Субдискретизация насыщенности : 4:2:0
    Битовая глубина : 8 бит
    Тип развёртки : Прогрессивная
    Метод сжатия : С потерями
    Бит/(Пиксели*Кадры) : 0.249
    Размер потока : 557 Мбайт (93%)
    Библиотека кодирования : XviD 1.2.1 (UTC 2008-12-04)
    Аудио
    Идентификатор : 1
    Формат : AC-3
    Формат/Информация : Audio Coding 3
    Расширение режима : CM (complete main)
    Параметр Endianness формата : Big
    Идентификатор кодека : 2000
    Продолжительность : 43 м.
    Вид битрейта : Постоянный
    Битрейт : 128 Кбит/сек
    Каналы : 2 канала
    Расположение каналов : Front: L R
    Частота : 48, 0 КГц
    Битовая глубина : 16 бит
    Метод сжатия : С потерями
    Размер потока : 39, 7 Мбайт (7%)
    Выравнивание : Разделение по промежуткам
    Продолжительность промежутка : 40 мс. (1, 00 видеокадр)
    Время предзагрузки промежутка : 500 мс.


    Скриншоты для ознакомления




    Онлайн видео Морские дьяволы. Смерч



    Морские дьяволы. Смерч-3 (2016) SATRip (сезон 3, серии 1-2 из 16) (обновляемая)
    загрузка...
    Рейтинг →
     (голосов: 1, оценка 5/5, голосовать можно 1 раз )

    Другие торренты по теме:

  • Морские дьяволы. Смерч 2 (2014) SATRip (серии 1-35 из 64) [обновляемая] скачать через торрент бесплатно
  • Морские дьяволы. Смерч. Судьбы (2016) SATRip [H.264] (сезон 2, серия 1-2 из 16) (Обновляемая)
  • Морские дьяволы. Смерч-3 (2015) HDTVRip [H.264 / 720p] [сезон 3, серии 1-12 из 32] [обновляемая]
  • Морские дьяволы. Смерч. Судьбы (2013) WEBRip (сезон 1, серий 1-14 из 14)
  • Морские дьяволы. Смерч. Судьбы-2 (2016) HDTVRip [H.264 / 720p-LQ] (сезон 2, серия 1-2 из 16) [Обновляемая]
  • Морские дьяволы. Смерч-3 (2015) HDTVRip [H.264 / 1080i] (сезон 3, серии 1-20 из 32) (обновляемая)
  • Морские дьяволы. Смерч. Судьбы-2 (2016) HDTVRip [H.264 / 1080i] (сезон 2, серия 1-4 из 16) (Обновляемая)
  • Морские дьяволы. Смерч (2015) HDTVRip (Сезон 3, серий 1-32 из 32)


    • Комментарии (0):

      Информация

      Информация

        Посетители, находящиеся в группе Гости, не могут оставлять комментарии в данной новости.

        ↓ Меню




        ↓ Опрос

        Вы добавили сайт в закладки?
        Да
        Нет


        Top 10 за месяц (Фильмы)