.
Авторизация | Регистрация
Хочешь лучшие торренты? Добавь свой email!
Добавить

Торрент скачать бесплатно

» » Солярис (1972) BDRip [H.264 / 1080p] [Criterion Collection] торрент скачать бесплатно




    Солярис (1972) BDRip [H.264 / 1080p] [Criterion Collection] торрент скачать бесплатно

    Опубликовал: Админ | Дата: 14-03-2016, 04:01 | Просмотров: 80

    Производство: СССР, Мосфильм
    Жанр: Фантастика, Драма
    Режиссер: Андрей Тарковский

    Актеры
    Наталья Бондарчук, Донатас Банионис, Юри Ярвет, Владислав Дворжецкий, Николай Гринько, Анатолий Солоницын, Ольга Барнет, Виталик Кердимун, Ольга Кизилова, Татьяна Малых, Владимир Заманский, Владимир Татосов

    Описание

    На космическую станцию, сотрудники которой давно и тщетно пытаются сладить с загадкой планеты Солярис, покрытой Океаном, прибывает новый обитатель, психолог Крис Кельвин, чтобы разобраться в странных сообщениях, поступающих со станции, и закрыть ее вместе со всей бесплодной соляристикой. Поначалу ему кажется, что немногие уцелевшие на станции ученые сошли с ума. Время пошло, сказал кто то из толпы, к чему не понятно. Потом он и сам становится жертвой жуткого наваждения: ему является его бывшая возлюбленная Хари, некогда на земле покончившая с собой.

    Продолжительность: 02: 46: 54
    Качество видео: BDRip 1080p
    Язык субтитров: Английский
    Вид субтитров: Вшитые отключаемые
    Видео: AVC/H.264, 1920x808, ~11.4 Mbps, 23.976 fps
    Аудио 1: AC3, 1 ch, 448 kbps. 48 kHz, CBR - Русский оригинал
    Аудио 2: AC3, 1 ch, 192 kbps. 48 kHz, CBR - Английский, комментарии
    Код:

    General
    Unique ID : 177872392107945097104313283712801126862 (0x85D0FA04089A59D5A889884C23AD39CE)
    Complete name : G:Download_GSoljaris.1972.x264.BDRip.1080p.mkv
    Format : Matroska
    Format version : Version 2
    File size : 14.0 GiB
    Duration : 2h 46mn
    Overall bit rate : 12.0 Mbps
    Encoded date : UTC 2011-05-28 03:54:57
    Writing application : mkvmerge v4.8.0 (\'I Got The...\') сборка от May 24 2011 03:12:58
    Writing library : libebml v1.2.0 + libmatroska v1.1.0
    Video
    ID : 1
    Format : AVC
    Format/Info : Advanced Video Codec
    Format profile :High@L4.1
    Format settings, CABAC : Yes
    Format settings, ReFrames : 5 frames
    Codec ID : V_MPEG4/ISO/AVC
    Duration : 2h 46mn
    Bit rate : 11.4 Mbps
    Width : 1 920 pixels
    Height : 808 pixels
    Display aspect ratio : 2.40:1
    Frame rate mode : Constant
    Frame rate : 23.976 fps
    Color space : YUV
    Chroma subsampling : 4:2:0
    Bit depth : 8 bits
    Scan type : Progressive
    Bits/(Pixel*Frame) : 0.306
    Stream size : 13.0 GiB (93%)
    Writing library : x264 core 114 r1924 08d04a4
    Encoding settings : cabac=1/ref=5/deblock=1:-3:-3/analyse=0x3:0x113/me=umh/subme=10/psy=1/psy_rd=1.05:0.10/mixed_ref=1/me_range=48/chroma_me=1/trellis=2/8x8dct=1/cqm=0/deadzone=21, 11/fast_pskip=0/chroma_qp_offset=-2/threads=12/sliced_threads=0/nr=0/decimate=1/interlaced=0/constrained_intra=0/bframes=6/b_pyramid=2/b_adapt=2/b_bias=0/direct=3/weightb=1/open_gop=0/weightp=2/keyint=250/keyint_min=23/scenecut=40/intra_refresh=0/rc_lookahead=60/rc=2pass/mbtree=1/bitrate=11364/ratetol=1.0/qcomp=0.70/qpmin=0/qpmax=69/qpstep=4/cplxblur=20.0/qblur=0.5/vbv_maxrate=40000/vbv_bufsize=30000/nal_hrd=none/ip_ratio=1.40/aq=1:0.90
    Default : No
    Forced : No
    Audio #1
    ID : 2
    Format : AC-3
    Format/Info : Audio Coding 3
    Mode extension : CM (complete main)
    Format settings, Endianness : Big
    Codec ID : A_AC3
    Duration : 2h 46mn
    Bit rate mode : Constant
    Bit rate : 448 Kbps
    Channel(s) : 1 channel
    Channel positions : Front: C
    Sampling rate : 48.0 KHz
    Compression mode : Lossy
    Stream size : 535 MiB (4%)
    Language : Russian
    Default : Yes
    Forced : Yes
    Audio #2
    ID : 3
    Format : AC-3
    Format/Info : Audio Coding 3
    Mode extension : CM (complete main)
    Format settings, Endianness : Big
    Codec ID : A_AC3
    Duration : 2h 46mn
    Bit rate mode : Constant
    Bit rate : 192 Kbps
    Channel(s) : 1 channel
    Channel positions : Front: C
    Sampling rate : 48.0 KHz
    Compression mode : Lossy
    Stream size : 229 MiB (2%)
    Language : English
    Default : No
    Forced : No
    Text
    ID : 4
    Format : UTF-8
    Codec ID : S_TEXT/UTF8
    Codec ID/Info : UTF-8 Plain Text
    Language : English
    Default : No
    Forced : No


    Скриншоты для ознакомления




    Онлайн видео Солярис (1972) BDRip [H.264



    Солярис (1972) BDRip [H.264/1080p] [Criterion Collection]
    загрузка...
    Рейтинг →
     (голосов: 1, оценка 5/5, голосовать можно 1 раз )

    Другие торренты по теме:

  • Солярис (1972) BDRip [720p] ATV
  • Солярис / Solaris (1972) BDRip [720p] [Полная реставрация - «Крупный План»]
  • Солярис / Solaris (1972) BDRip [1080p] [Полная реставрация - «Крупный План»] скачать через торрент бесплатно
  • Солярис (1972) BDRip [H.264 / 1080р] [PR]


    • Комментарии (0):

      Информация

      Информация

        Посетители, находящиеся в группе Гости, не могут оставлять комментарии в данной новости.

        ↓ Меню




        ↓ Опрос

        Вы добавили сайт в закладки?
        Да
        Нет


        Top 10 за месяц (Фильмы)