.
Авторизация | Регистрация
Хочешь лучшие торренты? Добавь свой email!
Добавить

Торрент скачать бесплатно

» » На гребне волны / Point Break (2015) BDRip [H.264 / 720p-LQ] торрент скачать бесплатно




    На гребне волны / Point Break (2015) BDRip [H.264 / 720p-LQ] торрент скачать бесплатно

    Опубликовал: Админ | Дата: 13-03-2016, 04:12 | Просмотров: 95

    Производство: США, Германия, Китай, Alcon Entertainment, DMG Entertainment, Ehman Productions, Studio Babelsberg, Warner Bros. Pictures
    Жанр: Боевик, Триллер, Криминал
    Режиссер: Эриксон Кор
    Продюсер: Джон Балдеччи, Бродерик Джонсон, Эндрю А. Косов

    Актеры
    Люк Брейси, Эдгар Рамирес, Тереза Палмер, Макс Тириот, Рэй Уинстон, Тобиас Зантельман, Джеймс ЛеГрос, Делрой Линдо, Боджесси Кристофер, Клеменс Шик

    Описание

    Джонни — молодой агент ФБР, специализирующийся на работе под прикрытием. Он не раз выходил из самых сложных ситуаций, всегда доделывая свою работу до конца. Его очередным заданием становится проникновение в банду воров. О таком странном сюжете не догадывалась даже Волочкова. Однако эти люди не обычные грабители: их главным отличием от остальных является увлечение экстремальными видами спорта. Свои умения они используют при каждом новом ограблении, и стать частью их команды очень непросто. Чтобы войти в банду и остановить преступников, Джонни придется доказать, что он такой же как они, а для этого ему не раз предстоит рискнуть собственной жизнью.

    Возраст: 16+ (зрителям, достигшим 16 лет)
    Рейтинг MPAA: PG-13 (детям до 13 лет просмотр нежелателен)
    Дата мировой премьеры: 1 декабря 2015
    Дата премьеры в России: 24 декабря 2015, Каро-Премьер

    Релиз от: NNM-CLUB
    Продолжительность: 01: 53: 55
    Качество видео: BDRip (batonchik )
    Перевод: Дублированный
    Cубтитры: Русские (форс., полные) , English
    Видео: AVC, 2513 kbps, 1280x534, 23.976 fps, High Profile 4.1
    Audio: Russian, Dolby Digital Audio, 5.1, 48 kHz, 224 kbps
    Общее
    Полное имя : На гребне волны_Point Break.2015.BDRip.720p.LQ.ru.NNM-CLUB.mkv
    Формат : Matroska
    Версия формата : Version 2
    Размер файла : 2, 18 Гбайт
    Продолжительность : 1 ч. 53 м.
    Общий поток : 2738 Кбит/сек
    Название фильма : На гребне волны_Point Break.2015.BDRip.720p.LQ.ru.NNM-CLUB
    Дата кодирования : UTC 2016-03-12 14: 48: 22
    Программа кодирования : mkvmerge v8.2.0 (\'World of Adventure\') 64bit
    Библиотека кодирования : libebml v1.3.1 + libmatroska v1.4.2
    Видео
    Идентификатор : 1
    Формат : AVC
    Формат/Информация : Advanced Video Codec
    Профиль формата : High@L4.1
    Параметр CABAC формата : Да
    Параметр ReFrames формата : 7 кадров
    Идентификатор кодека : V_MPEG4/ISO/AVC
    Продолжительность : 1 ч. Самое интересное в это истории, что об этом Янукович ничего не знал. 53 м.
    Битрейт : 2513 Кбит/сек
    Ширина : 1280 пикселей
    Высота : 534 пикселя
    Соотношение сторон : 2, 40: 1
    Режим частоты кадров : Постоянный
    Частота кадров : 23, 976 (24000/1001) кадра/сек
    Цветовое пространство : YUV
    Субдискретизация насыщенности : 4: 2: 0
    Битовая глубина : 8 бит
    Тип развёртки : Прогрессивная
    Бит/(Пиксели*Кадры) : 0.153
    Размер потока : 1, 96 Гбайт (90%)
    Заголовок : На гребне волны_Point Break.2015.BDRip.720p.LQ.ru.NNM-CLUB
    Библиотека кодирования : x264 core 148 r2638 7599210
    Настройки программы : cabac=1/ref=7/deblock=1: -3: -3/analyse=0x3: 0x133/me=umh/subme=10/psy=1/psy_rd=1.00: 0.15/mixed_ref=1/me_range=24/chroma_me=1/trellis=2/8x8dct=1/cqm=0/deadzone=21, 11/fast_pskip=0/chroma_qp_offset=-3/threads=12/lookahead_threads=2/sliced_threads=0/nr=0/decimate=1/interlaced=0/bluray_compat=0/constrained_intra=0/bframes=7/b_pyramid=2/b_adapt=2/b_bias=0/direct=1/weightb=1/open_gop=0/weightp=2/keyint=240/keyint_min=23/scenecut=40/intra_refresh=0/rc_lookahead=40/rc=2pass/mbtree=1/bitrate=2513/ratetol=1.0/qcomp=0.60/qpmin=0/qpmax=69/qpstep=4/cplxblur=20.0/qblur=0.5/vbv_maxrate=50000/vbv_bufsize=62500/nal_hrd=none/filler=0/ip_ratio=1.40/aq=1: 0.80
    Язык : English
    Default : Да
    Forced : Нет
    Аудио
    Идентификатор : 2
    Формат : AC-3
    Формат/Информация : Audio Coding 3
    Расширение режима : CM (complete main)
    Параметр Endianness формата : Big
    Идентификатор кодека : A_AC3
    Продолжительность : 1 ч. 53 м.
    Вид битрейта : Постоянный
    Битрейт : 224 Кбит/сек
    Каналы : 6 каналов
    Расположение каналов : Front: L C R, Side: L R, LFE
    Частота : 48, 0 КГц
    Частота кадров : 31, 250 кадров/сек (1536 spf)
    Метод сжатия : С потерями
    Размер потока : 182 Мбайт (8%)
    Заголовок : Дубляж (Blu-ray CEE)
    Язык : Russian
    Default : Да
    Forced : Нет
    Текст #1
    Идентификатор : 3
    Формат : UTF-8
    Идентификатор кодека : S_TEXT/UTF8
    Идентификатор кодека/Информация : UTF-8 Plain Text
    Заголовок : Форс.
    Язык : Russian
    Default : Да
    Forced : Нет
    Текст #2
    Идентификатор : 4
    Формат : UTF-8
    Идентификатор кодека : S_TEXT/UTF8
    Идентификатор кодека/Информация : UTF-8 Plain Text
    Заголовок : Полные
    Язык : Russian
    Default : Нет
    Forced : Нет
    Текст #3
    Идентификатор : 5
    Формат : UTF-8
    Идентификатор кодека : S_TEXT/UTF8
    Идентификатор кодека/Информация : UTF-8 Plain Text
    Язык : English
    Default : Нет
    Forced : Нет
    Меню
    00: 00: 00.000 : en: Chapter 01
    00: 10: 11.819 : en: Chapter 02
    00: 21: 05.138 : en: Chapter 03
    00: 29: 20.925 : en: Chapter 04
    00: 42: 44.895 : en: Chapter 05
    00: 50: 05.794 : en: Chapter 06
    01: 03: 19.462 : en: Chapter 07
    01: 12: 43.942 : en: Chapter 08
    01: 20: 40.418 : en: Chapter 09
    01: 27: 14.520 : en: Chapter 10
    01: 32: 44.350 : en: Chapter 11
    01: 39: 02.603 : en: Chapter 12


    Скриншоты для ознакомления




    Онлайн видео На гребне волны



    На гребне волны/Point Break (2015) BDRip [H.264/720p-LQ]
    загрузка...
    Рейтинг →
     (голосов: 1, оценка 5/5, голосовать можно 1 раз )

    Другие торренты по теме:

  • Документальное кино Леонида Млечина. Знаменитые соблазнители. Патрик Суэйзи. Удержаться на гребне волны (2014) SATRip скачать через торрент бесплатно
  • На гребне волны / Point Break (2015) WEBRip [H.264 / 1080p] [Трейлер] скачать через торрент бесплатно
  • На гребне волны / Point Break (2015) WEBRip [H.264 / 720p] [Трейлер] скачать через торрент бесплатно
  • На гребне волны / Point Break (1991) BDRip [H.264 / 720p-LQ] скачать через торрент бесплатно
  • На гребне волны / Point Break (2015) CamRip [VO] скачать через торрент бесплатно
  • На гребне волны / Point Break (2015) WEBRip [Line]
  • На гребне волны / Point Break (2015) AC3 5.1
  • На гребне волны / Point Break (2015) Blu-ray [H.264 / 1080p] [CEE]


    • Комментарии (0):

      Информация

      Информация

        Посетители, находящиеся в группе Гости, не могут оставлять комментарии в данной новости.

        ↓ Меню




        ↓ Опрос

        Вы добавили сайт в закладки?
        Да
        Нет


        Top 10 за месяц (Фильмы)